<?xml version="1.0" standalone="no"?>
<!DOCTYPE svg PUBLIC "-//W3C//DTD SVG 1.1//EN" "http://www.w3.org/Graphics/SVG/1.1/DTD/svg11.dtd" >
<svg xmlns="http://www.w3.org/2000/svg">
<metadata>Generated by IcoMoon</metadata>
<defs>
<font id="icomoon" horiz-adv-x="1024">
<font-face units-per-em="1024" ascent="960" descent="-64" />
<missing-glyph horiz-adv-x="1024" />
<glyph unicode="&#x20;" horiz-adv-x="512" d="" />
<glyph unicode="&#xe065;" glyph-name="playlist_add_check" d="M918 448.667l64-64-298-300-194 192 64 64 130-128zM86 256.667v84h340v-84h-340zM598 682.667v-86h-512v86h512zM598 512.667v-86h-512v86h512z" />
<glyph unicode="&#xe0c3;" glyph-name="import_export" d="M682 212.667h128l-170-170-170 170h128v300h84v-300zM384 810.667l170-170h-128v-300h-84v300h-128z" />
<glyph unicode="&#xe151;" glyph-name="drafts" d="M512 384.667l352 220-352 206-352-206zM938 596.667v-426c0-46-38-86-84-86h-684c-46 0-84 40-84 86v426c0 30 16 60 40 74l386 226 386-226c24-14 40-44 40-74z" />
<glyph unicode="&#xe41b;" glyph-name="slideshow" d="M810 128.667v596h-596v-596h596zM810 810.667c46 0 86-40 86-86v-596c0-46-40-86-86-86h-596c-46 0-86 40-86 86v596c0 46 40 86 86 86h596zM426 596.667l214-170-214-170v340z" />
<glyph unicode="&#xe5d4;" glyph-name="more_vert" d="M512 256.667c46 0 86-40 86-86s-40-86-86-86-86 40-86 86 40 86 86 86zM512 512.667c46 0 86-40 86-86s-40-86-86-86-86 40-86 86 40 86 86 86zM512 596.667c-46 0-86 40-86 86s40 86 86 86 86-40 86-86-40-86-86-86z" />
<glyph unicode="&#xe7f4;" glyph-name="notifications" d="M768 256.667l86-86v-42h-684v42l86 86v212c0 132 70 240 192 270v30c0 36 28 64 64 64s64-28 64-64v-30c122-30 192-140 192-270v-212zM512 0.667c-48 0-86 38-86 84h172c0-46-40-84-86-84z" />
<glyph unicode="&#xe80d;" glyph-name="share3" d="M768 252.667c68 0 124-56 124-124s-56-126-124-126-124 58-124 126c0 10 0 20 2 28l-302 176c-24-22-54-34-88-34-70 0-128 58-128 128s58 128 128 128c34 0 64-12 88-34l300 174c-2 10-4 20-4 30 0 70 58 128 128 128s128-58 128-128-58-128-128-128c-34 0-64 14-88 36l-300-176c2-10 4-20 4-30s-2-20-4-30l304-176c22 20 52 32 84 32z" />
<glyph unicode="&#xe8b5;" glyph-name="schedule" d="M534 640.667v-224l192-114-32-54-224 136v256h64zM512 84.667c188 0 342 154 342 342s-154 342-342 342-342-154-342-342 154-342 342-342zM512 852.667c236 0 426-190 426-426s-190-426-426-426-426 190-426 426 190 426 426 426z" />
<glyph unicode="&#xe8ee;" glyph-name="view_headline" d="M170 724.667h684v-84h-684v84zM170 468.667v86h684v-86h-684zM170 128.667v84h684v-84h-684zM170 298.667v86h684v-86h-684z" />
<glyph unicode="&#xe8ef;" glyph-name="view_list" d="M384 724.667h512v-170h-512v170zM384 128.667v170h512v-170h-512zM384 340.667v172h512v-172h-512zM170 554.667v170h172v-170h-172zM170 128.667v170h172v-170h-172zM170 340.667v172h172v-172h-172z" />
<glyph unicode="&#xe8f0;" glyph-name="view_module" d="M682 724.667h214v-256h-214v256zM426 468.667v256h214v-256h-214zM682 170.667v256h214v-256h-214zM426 170.667v256h214v-256h-214zM170 170.667v256h214v-256h-214zM170 468.667v256h214v-256h-214z" />
<glyph unicode="&#xe900;" glyph-name="searchs" horiz-adv-x="958" d="M433.423 98.157c-236.55 0-428.995 192.446-428.995 428.995s192.446 428.995 428.995 428.995 428.995-192.446 428.995-428.995-192.446-428.995-428.995-428.995zM433.423 823.304c-163.309 0-296.152-132.843-296.152-296.152s132.843-296.152 296.152-296.152 296.152 132.843 296.152 296.152-132.843 296.152-296.152 296.152zM705.961 289.112l249.443-257.073-95.342-92.512-249.443 257.073 95.342 92.512z" />
<glyph unicode="&#xe901;" glyph-name="logo" horiz-adv-x="5427" d="M3793.090 877.017c-83.031 19.024-119.82-18.359-134.224-71.322-21.898-80.561-48.913-480.371 1.484-673.174 21.090-80.691 74.754-88.279 148.438-66.797 142.501 41.563 433.63 213.086 555.16 331.766 47.69 46.562 44.532 97.969-4.453 143.985-82.651 77.639-394.858 296.236-566.406 335.542zM3937.931 239.575c-128.607 0-232.858 104.251-232.858 232.858 0 128.619 104.251 232.87 232.858 232.87s232.858-104.251 232.858-232.87c0.012-128.595-104.251-232.858-232.858-232.858zM3937.931 601.408c-71.215 0-128.951-57.737-128.951-128.963 0-71.215 57.737-128.951 128.951-128.951 71.227 0 128.951 57.737 128.951 128.951 0.012 71.227-57.725 128.963-128.951 128.963zM3956.123 497.501c-19.048 0-34.509 15.449-34.509 34.509s15.461 34.509 34.509 34.509c19.060 0 34.509-15.449 34.509-34.509s-15.449-34.509-34.509-34.509zM4013.076 475.414c-11.578 0-20.971 9.393-20.971 20.971s9.393 20.971 20.971 20.971c11.59 0 20.971-9.393 20.971-20.971s-9.381-20.971-20.971-20.971zM966.168 802.81c-15.426 9.844-34.604 14.773-57.547 14.773-17.076 0-30.365-2.47-39.853-7.41-9.524-4.928-18.549-12.932-27.040-24.095l-265.646-502.731-262.665 502.731c-8.514 11.163-18.038 19.166-28.524 24.095-10.498 4.928-24.581 7.41-42.299 7.41-22.966 0-42.157-4.928-57.547-14.773-15.426-9.833-23.133-25.258-23.133-46.253v-624.7h135.756v441.717l210.533-427.93c15.093-19.024 37.062-28.548 65.93-28.548 28.821 0 50.802 9.536 65.883 28.548l211.507 427.93v-441.717h137.727v624.712c0.012 20.983-7.695 36.409-23.085 46.242zM1106.116 804.567h149.531v-670.93h-149.531v670.93zM1939.212 319.565l-416.934 475.158c-7.232 7.244-16.423 13.134-27.55 17.718-11.163 4.584-25.258 6.888-42.299 6.888-23.62 0-42.798-5.071-57.57-15.236-14.737-10.189-22.123-25.757-22.123-46.752v-623.715h138.713v477.141l413.015-460.409c11.804-11.151 24.439-19.178 37.87-24.106s28.037-7.386 43.772-7.386c22.301 0 40.34 4.762 54.127 14.298 13.763 9.476 20.663 25.389 20.663 47.69v623.727h-141.682v-485.014zM2195.975 804.567h149.543v-670.93h-149.543v670.93zM3499.040 804.579c-15.426 9.844-34.616 14.773-57.547 14.773-17.088 0-30.365-2.47-39.865-7.41-9.524-4.928-18.561-12.932-27.051-24.095l-381.736-502.743-378.768 502.743c-8.514 11.163-18.038 19.166-28.5 24.095-10.509 4.928-24.581 7.41-42.311 7.41-22.966 0-42.145-4.928-57.547-14.773-15.438-9.833-23.145-25.258-23.145-46.253v-624.7h135.768v441.717l326.636-427.93c15.093-19.024 37.074-28.548 65.93-28.548 28.833 0 50.813 9.536 65.907 28.548l327.586 427.93v-441.705h137.751v624.7c0 20.983-7.731 36.409-23.109 46.242zM5151.279 804.579v-485.014l-492.863 475.158c-7.244 7.244-16.423 13.134-27.55 17.718-11.174 4.584-25.282 6.888-42.323 6.888-23.584 0-42.786-5.071-57.547-15.236-14.725-10.189-22.147-25.757-22.147-46.752v-623.715h138.725v477.141l488.945-460.409c11.828-11.151 24.475-19.178 37.893-24.106s28.013-7.386 43.783-7.386c22.278 0 40.328 4.762 54.103 14.298 13.775 9.476 20.663 25.389 20.663 47.69v623.727h-141.682z" />
<glyph unicode="&#xe902;" glyph-name="logo-bg1" horiz-adv-x="2411" d="M2438.346 960h-2438.346v-1024h2438.346v1024zM989.265 131.856h-137.727v441.717l-211.507-427.93c-15.081-19.024-37.062-28.548-65.883-28.548-28.88 0-50.849 9.536-65.93 28.548l-210.545 427.93v-441.717h-135.756v624.712c0 20.995 7.707 36.409 23.133 46.253 15.39 9.844 34.58 14.773 57.547 14.773 17.718 0 31.79-2.47 42.299-7.41 10.486-4.928 20.010-12.932 28.524-24.095l262.665-502.731 265.634 502.731c8.491 11.163 17.528 19.166 27.040 24.095 9.488 4.928 22.776 7.41 39.853 7.41 22.943 0 42.121-4.928 57.547-14.773 15.39-9.833 23.097-25.258 23.097-46.253v-624.712zM1255.647 133.637h-149.531v670.93h149.531v-670.93zM2080.882 180.84c0-22.301-6.899-38.214-20.663-47.69-13.775-9.536-31.825-14.298-54.127-14.298-15.723 0-30.341 2.458-43.772 7.386-13.443 4.928-26.066 12.956-37.87 24.106l-413.015 460.409v-477.141h-138.713v623.739c0 20.995 7.398 36.563 22.123 46.752 14.773 10.165 33.951 15.236 57.57 15.236 17.041 0 31.136-2.304 42.299-6.888 11.139-4.584 20.318-10.474 27.55-17.718l416.934-475.158v485.002h141.682v-623.739zM2345.518 133.637h-149.543v670.93h149.543v-670.93z" />
<glyph unicode="&#xe903;" glyph-name="logo-bg2" horiz-adv-x="3028" d="M1539.165 705.315c-128.607 0-232.858-104.251-232.858-232.87 0-128.607 104.251-232.858 232.858-232.858s232.858 104.251 232.858 232.858c0.012 128.607-104.251 232.87-232.858 232.87zM1539.165 343.481c-71.215 0-128.951 57.737-128.951 128.951 0 71.227 57.737 128.963 128.951 128.963 71.227 0 128.951-57.737 128.951-128.963 0.012-71.203-57.725-128.951-128.951-128.951zM1635.282 496.385c0-11.582-9.389-20.971-20.971-20.971s-20.971 9.389-20.971 20.971c0 11.582 9.389 20.971 20.971 20.971s20.971-9.389 20.971-20.971zM1591.866 532.010c0-19.059-15.45-34.509-34.509-34.509s-34.509 15.45-34.509 34.509c0 19.059 15.45 34.509 34.509 34.509s34.509-15.45 34.509-34.509zM-2398.766 960v-1024h5426.911v1024h-5426.911zM-1409.501 131.856h-137.727v441.717l-211.507-427.93c-15.081-19.024-37.062-28.548-65.883-28.548-28.88 0-50.849 9.536-65.93 28.548l-210.533 427.93v-441.717h-135.756v624.712c0 20.995 7.707 36.409 23.133 46.253 15.39 9.844 34.58 14.773 57.547 14.773 17.718 0 31.79-2.47 42.299-7.41 10.486-4.928 20.010-12.932 28.524-24.095l262.665-502.731 265.634 502.731c8.491 11.163 17.528 19.166 27.040 24.095 9.488 4.928 22.776 7.41 39.853 7.41 22.943 0 42.121-4.928 57.547-14.773 15.39-9.833 23.097-25.258 23.097-46.253v-624.712zM-1143.119 133.637h-149.531v670.93h149.531v-670.93zM-317.884 180.84c0-22.301-6.899-38.214-20.663-47.69-13.775-9.536-31.825-14.298-54.127-14.298-15.723 0-30.341 2.458-43.772 7.386-13.443 4.928-26.066 12.956-37.87 24.106l-413.015 460.409v-477.141h-138.713v623.739c0 20.995 7.398 36.563 22.123 46.752 14.773 10.165 33.951 15.236 57.57 15.236 17.041 0 31.136-2.304 42.299-6.888 11.139-4.584 20.318-10.474 27.55-17.718l416.934-475.158v485.002h141.682v-623.739zM-53.248 133.637h-149.543v670.93h149.543v-670.93zM1123.383 133.637h-137.751v441.705l-327.598-427.93c-15.093-19.024-37.074-28.548-65.907-28.548-28.856 0-50.825 9.536-65.93 28.548l-326.624 427.93v-441.705h-135.768v624.7c0 20.995 7.707 36.409 23.145 46.253 15.402 9.844 34.58 14.773 57.547 14.773 17.718 0 31.801-2.47 42.311-7.41 10.474-4.928 19.998-12.932 28.5-24.095l378.768-502.743 381.736 502.743c8.503 11.163 17.539 19.166 27.051 24.095s22.776 7.41 39.865 7.41c22.931 0 42.121-4.928 57.547-14.773 15.378-9.833 23.097-25.258 23.097-46.253v-624.7zM1965.183 397.477c-121.53-118.668-412.659-290.203-555.16-331.766-73.685-21.482-127.348-13.894-148.438 66.797-50.398 192.804-23.382 592.614-1.484 673.174 14.404 52.951 51.193 90.334 134.224 71.322 171.547-39.307 483.755-257.891 566.406-335.542 48.985-46.004 52.143-97.423 4.453-143.985zM2894.182 180.84c0-22.301-6.888-38.214-20.663-47.69-13.775-9.536-31.825-14.298-54.103-14.298-15.758 0-30.353 2.458-43.783 7.386s-26.066 12.956-37.893 24.106l-488.945 460.409v-477.141h-138.725v623.739c0 20.995 7.422 36.563 22.147 46.752 14.761 10.165 33.951 15.236 57.547 15.236 17.053 0 31.148-2.304 42.323-6.888 11.139-4.584 20.306-10.474 27.55-17.718l492.863-475.158v485.002h141.67v-623.739z" />
<glyph unicode="&#xe904;" glyph-name="close-pop" d="M205.232 754.624l642.357-642.357-12.931-12.931-642.357 642.357 12.931 12.931zM834.657 754.624l12.931-12.931-642.357-642.357-12.931 12.931 642.357 642.357z" />
<glyph unicode="&#xe905;" glyph-name="facebook" d="M664.11 430.416l15.142 121.798h-111.63v70.336c0 33.997 4.938 57.132 53.639 57.132l62.051 0.055v104.882c-10.698 1.445-47.567 4.627-90.489 4.627-103.51 0-159.892-54.663-159.892-155.046v-81.985h-92.245v-121.798h92.245v-323.643h134.691v323.643h96.487z" />
<glyph unicode="&#xe906;" glyph-name="google" d="M628.522 773.408c21.671-17.922 66.952-55.65 66.952-127.339 0-69.787-39.63-102.797-79.224-133.923-12.235-12.235-26.408-25.475-26.408-46.195 0-20.757 14.155-32.077 24.506-40.581l33.961-26.39c41.514-34.912 79.224-67.007 79.224-132.058 0-88.679-85.826-178.29-248.058-178.29-136.758 0-202.777 65.087-202.777 134.874 0 33.997 16.99 82.077 72.658 115.105 58.448 35.826 137.69 40.544 180.119 43.379-13.204 16.971-28.273 34.875-28.273 64.099 0 16.057 4.718 25.512 9.437 36.795-10.388-0.914-20.739-1.884-30.193-1.884-99.962 0-156.564 74.542-156.564 148.096 0 43.379 19.806 91.477 60.369 126.388 53.767 44.33 117.903 51.865 168.817 51.865h194.292l-60.35-33.943h-58.485zM561.533 354.649c-7.553 0.914-12.271 0.914-21.69 0.914-8.467 0-59.436-1.884-99.048-15.106-20.739-7.535-81.107-30.139-81.107-97.146 0-66.934 65.087-115.050 166.018-115.050 90.544 0 138.66 43.379 138.66 101.846-0.018 48.134-31.126 73.609-102.833 124.541v0zM588.91 533.816c21.671 21.726 23.555 51.883 23.555 68.873 0 67.903-40.563 173.553-118.835 173.553-24.524 0-50.932-12.253-66.020-31.126-16.039-19.806-20.775-45.281-20.775-69.787 0-63.185 36.795-167.884 117.903-167.884 23.573-0.018 49.048 11.32 64.173 26.371v0z" />
<glyph unicode="&#xe907;" glyph-name="kakao" d="M414.37 468.931h54.48l-27.231 61.265zM534.43 830.21c-222.876 0-403.543-142.811-403.543-318.961 0-102.687 61.393-193.999 156.71-252.32 7.407-7.535 13.844-19.879 6.364-37.801 0 0-29.773-77.267-87.417-128.766 0 0-6.035-9.217 23.39-2.835 0 0 108.448 26.591 225.034 100.273 0 0 4.609 3.182 18.782 3.182 0 0 9.711 0.311 22.677 0.732 12.509-0.951 25.164-1.426 37.984-1.426 222.876 0 403.543 142.811 403.543 318.961 0.018 176.15-180.667 318.961-403.525 318.961zM326.788 419.699c0-10.717-7.992-19.477-17.813-19.477-9.857 0-17.813 8.76-17.813 19.477v138.239h-41.752c-9.418 0-17.099 7.352-17.099 16.349 0 9.053 7.681 16.368 17.099 16.368h117.756c9.437 0 17.099-7.315 17.099-16.349 0-9.016-7.663-16.368-17.099-16.368h-40.38v-138.239zM527.664 412.732c-1.628-4.773-4.956-8.486-9.382-10.442-2.195-0.988-4.499-1.463-6.876-1.463-7.48 0-14.411 4.737-17.63 12.015l-12.143 27.322h-80.065l-12.143-27.322c-3.219-7.279-10.15-12.015-17.611-12.015-2.396 0-4.7 0.475-6.876 1.463-4.426 1.957-7.754 5.669-9.382 10.442-1.628 4.755-1.372 10.040 0.768 14.813l67.154 151.15c0.86 1.92 4.572 6.474 8.376 9.199 0.037 0.018 0.037 0.037 0.073 0.055 0.914 0.658 1.847 1.244 2.725 1.609 0 0.018 0.037 0 0.055 0 0.073 0.037 0.165 0.091 0.238 0.128 2.085 0.933 4.334 1.39 6.62 1.426 2.286-0.037 4.535-0.494 6.62-1.426 0.073-0.037 0.165-0.091 0.238-0.128 0.018 0 0.037 0 0.073 0 0.878-0.366 1.811-0.951 2.725-1.591 0.037-0.018 0.055-0.055 0.091-0.073 3.804-2.725 7.498-7.26 8.376-9.181 0-0.018 0-0.055 0.018-0.073v0l67.117-151.077c2.195-4.791 2.451-10.077 0.841-14.832zM658.569 399.29h-97.859c-11.777 0-17.374 5.45-18.032 17.337h-0.146v151.754c0 10.918 8.156 19.769 18.178 19.769 10.004 0 18.16-8.851 18.16-19.769v-137.251h79.681c8.339 0 15.124-7.169 15.124-15.911 0.018-8.76-6.767-15.929-15.106-15.929zM825.923 404.612c-2.816-2.213-6.309-3.42-10.15-3.42-6.821 0-13.771 3.676-18.617 9.748l-55.175 69.659-17.374-17.648v-41.239c0-12.893-8.888-23.409-19.806-23.409-10.955 0-19.806 10.516-19.806 23.409v144.731c0 12.911 8.87 23.39 19.806 23.39 10.9 0 19.806-10.497 19.806-23.39v-52.761l63.112 63.77c5.45 5.468 12.527 8.778 19.020 8.778 4.243 0 7.919-1.39 10.589-4.005 6.949-6.876 4.974-20.19-4.371-29.681l-44.641-45.263 58.010-73.243c3.822-4.81 5.87-10.534 5.724-16.13-0.091-5.486-2.249-10.241-6.126-13.295z" />
<glyph unicode="&#xe908;" glyph-name="naver" d="M848.966 774.23h-233.702v-196.889c0-49.085 0-86.082 0-110.697 0-18.379 0-43.215 0-73.92 0 12.308-21.086 43.16-52.944 104.717-31.913 61.338-69.019 122.969-100.877 178.326-31.748 61.612-47.659 92.263-52.944 98.444h-233.446v-689.037h222.656v221.577c0 42.849 0 73.499 0 85.972 0 12.308 0 37.088 0 61.759 5.285-12.527 26.627-43.324 58.54-104.882 37.033-55.23 68.854-116.677 100.822-172.145 31.803-55.431 47.878-92.263 52.944-92.263h238.933v689.037z" />
<glyph unicode="&#xe909;" glyph-name="down" d="M205.228 571.742l327.657-327.657-12.931-12.931-327.657 327.657 12.931 12.931zM507.017 244.098l327.648 327.648 12.93-12.93-327.648-327.666z" />
<glyph unicode="&#xe90a;" glyph-name="up" d="M834.664 231.159l-327.657 327.657 12.931 12.931 327.657-327.657-12.931-12.931zM532.857 558.798l-12.911-12.93-314.736-314.7-12.93 12.93 327.666 327.648z" />
<glyph unicode="&#xe90b;" glyph-name="emblem" d="M528.322 541.369c-18.27 0-33.065-14.813-33.065-33.083 0-18.288 14.813-33.101 33.065-33.101 18.306 0 33.083 14.813 33.083 33.101 0 18.27-14.777 33.083-33.083 33.083zM510.912 674.433c-123.316 0-223.278-99.962-223.278-223.26 0-123.316 99.962-223.242 223.278-223.242 123.298 0 223.26 99.926 223.26 223.242 0 123.298-99.962 223.26-223.26 223.26zM510.912 327.546c-68.269 0-123.645 55.358-123.645 123.645 0 68.306 55.358 123.645 123.645 123.645s123.627-55.339 123.627-123.645c0-68.287-55.358-123.645-123.627-123.645zM603.065 474.124c0-11.11-9.007-20.117-20.117-20.117s-20.117 9.007-20.117 20.117c0 11.11 9.007 20.117 20.117 20.117s20.117-9.007 20.117-20.117zM512.265 959.616c-282.495 0-511.497-228.984-511.497-511.461 0-282.513 229.002-511.497 511.497-511.497s511.479 228.984 511.479 511.497c0 282.476-228.984 511.461-511.479 511.461zM387.084 61.218c-70.665-20.592-122.091-13.314-142.317 64.045-48.317 184.873-22.403 568.208-1.408 645.42 13.789 50.786 49.085 86.612 128.693 68.379 164.482-37.673 463.802-247.272 543.044-321.704 46.964-44.111 49.999-93.415 4.261-138.038-116.531-113.788-395.624-278.252-532.272-318.101z" />
<glyph unicode="&#xe90c;" glyph-name="emblembg" d="M311.591 885.97c-88.057 20.172-127.083-19.477-142.354-75.639-23.244-85.442-51.883-509.522 1.573-714.018 22.366-85.588 79.278-93.635 157.441-70.848 151.15 44.074 459.925 226.003 588.837 351.879 50.585 49.396 47.238 103.931-4.718 152.741-87.654 82.351-418.813 314.206-600.779 355.884zM465.21 209.863c-136.41 0-246.979 110.588-246.979 246.998s110.569 246.998 246.979 246.998 246.998-110.588 246.998-246.998c0-136.41-110.588-246.998-246.998-246.998zM465.21 593.655c-75.529 0-136.776-61.247-136.776-136.794 0-75.529 61.247-136.776 136.776-136.776 75.548 0 136.776 61.247 136.776 136.776 0.018 75.548-61.21 136.794-136.776 136.794zM484.504 483.433c-20.19 0-36.594 16.386-36.594 36.594s16.386 36.613 36.594 36.613c20.227 0 36.613-16.386 36.613-36.613s-16.386-36.594-36.613-36.594zM544.928 460.006c-12.271 0-22.238 9.967-22.238 22.238s9.967 22.238 22.238 22.238 22.22-9.967 22.22-22.238-9.93-22.238-22.22-22.238z" />
<glyph unicode="&#xe90d;" glyph-name="share" d="M421.026 461.048c0-80.266-65.069-145.335-145.335-145.335s-145.335 65.069-145.335 145.335c0 80.266 65.069 145.335 145.335 145.335s145.335-65.069 145.335-145.335zM883.201 206.717c0-80.276-65.077-145.353-145.353-145.353s-145.353 65.077-145.353 145.353c0 80.276 65.077 145.353 145.353 145.353s145.353-65.077 145.353-145.353zM883.201 710.863c0-80.276-65.077-145.353-145.353-145.353s-145.353 65.077-145.353 145.353c0 80.276 65.077 145.353 145.353 145.353s145.353-65.077 145.353-145.353zM388.76 423.368l274.955-162.634-12.858-21.738-274.955 162.634 12.858 21.738zM353.215 502.683l272.941 166.072 13.137-21.592-272.941-166.072-13.137 21.592z" />
<glyph unicode="&#xe90e;" glyph-name="myplay" d="M510.052 30.75c-94.201 0-181.088 31.236-250.93 83.887 24.744 13.716 49.871 26.682 75.182 39.264 19.44 9.674 39.045 19.038 58.704 28.273 28.273 13.259 41.971 46.269 40.819 76.115-0.366 8.998-1.609 18.361-3.749 27.103-5.541 22.641-15.856 43.635-26.024 64.483-10.388 21.269-20.665 43.471-27.578 66.166-10.168 33.394-7.59 68.525-6.584 102.888 0.951 32.864-4.554 65.855-1.591 98.645 2.103 23.39 11.265 46.506 25.75 64.977 15.197 19.458 44.732 43.343 99.084 47.073h39.374c54.352-3.749 83.905-27.615 99.066-47.073 14.484-18.471 23.646-41.587 25.768-64.977 2.963-32.79-2.542-65.782-1.609-98.645 1.006-34.363 3.584-69.513-6.584-102.888-5.029-16.477-11.832-32.699-19.166-48.5h29.956c7.48 19.495 13.753 35.899 13.753 35.899 8.998 23.464 22.732 46.543 22.238 72.439-0.457 24.762-8.577 48.39-7.023 73.518 3.456 56.089 9.912 109.216-27.231 156.673-20.135 25.75-58.704 57.369-127.906 61.74h-41.916c-69.184-4.371-107.771-35.991-127.906-61.74-37.125-47.476-30.669-100.584-27.213-156.673 1.536-25.146-6.565-48.756-7.023-73.518-0.494-25.896 13.241-48.975 22.238-72.439 0 0 38.002-99.249 38.094-99.468 15.088-39.392 16.788-71.232-23.281-92.080-46.122-23.994-92.409-47.64-138.66-71.396-83.137 76.279-135.295 185.806-135.295 307.513 0 230.447 186.812 417.241 417.241 417.241s417.241-186.812 417.241-417.241h37.929c0 251.405-203.783 455.188-455.188 455.188s-455.17-203.801-455.17-455.207 203.783-455.188 455.188-455.188v37.948z" />
<glyph unicode="&#xe90f;" glyph-name="myfaq" d="M511.223 904.569c-252.027 0-456.359-204.314-456.359-456.34s204.314-456.34 456.34-456.34c252.045 0 456.34 204.314 456.34 456.34s-204.295 456.322-456.322 456.34zM511.223 29.909c-231.032 0-418.32 187.287-418.32 418.32 0 231.014 187.287 418.32 418.32 418.32 231.014 0 418.32-187.287 418.32-418.32 0-231.051-187.306-418.32-418.32-418.32zM371.173 662.985c9.949 34.765 41.752 59.308 78.401 69.805 17.154 4.919 34.784 7.37 52.889 7.37 46.817 0 83.942-12.363 111.356-37.106 27.414-24.762 41.093-56.418 41.093-94.988 0-15.691-2.451-30.742-7.37-45.098-4.956-14.374-12.235-27.798-21.946-40.307-9.729-12.509-30.541-33.522-62.472-63.057-26.883-24.744-43.233-40.727-49.103-47.896-9.857-11.723-16.77-22.604-20.757-32.717-2.926-6.931-4.389-14.118-4.389-21.562 0-10.15 3.895-19.751 9.107-28.31 4.133-6.821 12.18-13.99 2.926-20.574-16.734-11.887-32.79 13.277-39.173 25.347-5.322 10.095-7.992 21.543-7.992 34.308s3.072 25.548 9.199 38.313c6.126 12.765 21.086 32.845 44.842 60.277 31.492 35.918 51.371 62.252 59.637 79.022 8.284 16.752 12.418 32.845 12.418 48.299 0 25.274-9.455 46.616-28.383 64.045-11.119 10.241-24.414 17.776-39.027 21.635-19.129 5.011-41.898 8.577-60.734 0.604-8.12-3.438-16.423-8.102-21.635-15.453-8.979-12.674-6.108-29.371-13.442-42.629-2.085-3.731-5.176-7.059-8.54-9.693-3.237-2.56-7.059-3.749-11.156-3.804-7.608-0.091-16.715 2.505-22.11 8.138-2.707 2.835-5.651 7.553-6.419 11.448-1.28 6.419-1.024 13.698-0.274 20.153 0.585 4.901 1.701 9.674 3.054 14.429zM492.862 249.676c13.039 0 24.067-4.59 33.138-13.771 9.053-9.162 13.57-20.153 13.57-32.918s-4.517-23.738-13.57-32.937c-9.053-9.181-20.099-13.753-33.138-13.753-12.783 0-23.683 4.572-32.717 13.753-9.071 9.181-13.588 20.172-13.588 32.937s4.517 23.738 13.588 32.918c9.034 9.162 19.934 13.771 32.717 13.771z" />
<glyph unicode="&#xe910;" glyph-name="myqna" d="M928.025 447.991c0-121.103-51.554-230.1-133.832-306.434-45.976 23.61-91.952 47.128-137.8 70.957-40.142 20.885-38.441 52.797-23.299 92.263 0.091 0.238 38.149 99.651 38.149 99.651 5.541 14.411 12.82 28.694 17.538 43.562h-36.082c-1.134-10.424-2.944-20.757-6.053-30.925-6.931-22.732-17.209-44.988-27.633-66.294-10.186-20.867-20.519-41.916-26.079-64.593-2.121-8.76-3.383-18.16-3.731-27.139-1.17-29.901 12.564-62.966 40.874-76.261 19.696-9.254 39.319-18.635 58.814-28.328 25.091-12.472 50.054-25.183 74.578-38.771-70.317-53.712-158.118-85.661-253.417-85.661s-183.081 31.949-253.38 85.643c24.506 13.57 49.469 26.316 74.542 38.789 19.477 9.693 39.118 19.074 58.814 28.328 28.328 13.295 42.062 46.36 40.874 76.261-0.366 8.998-1.609 18.398-3.731 27.139-5.56 22.677-15.892 43.727-26.079 64.593-10.406 21.306-20.702 43.562-27.633 66.294-10.205 33.449-7.59 68.635-6.602 103.089 0.969 32.9-4.554 65.965-1.591 98.792 2.103 23.445 11.284 46.598 25.786 65.124 15.216 19.477 44.806 43.397 99.267 47.146h39.466c27.816-1.902 49.122-9.107 65.361-18.27v42.465c-17.721 7.242-38.844 12.491-64.099 14.082h-41.989c-69.312-4.371-107.954-36.046-128.144-61.85-37.18-47.567-30.724-100.785-27.267-156.966 1.554-25.183-6.565-48.847-7.041-73.646-0.494-25.951 13.277-49.067 22.293-72.585 0 0 38.057-99.414 38.149-99.651 15.124-39.466 16.843-71.378-23.299-92.263-45.848-23.848-91.842-47.366-137.8-70.957-82.296 76.334-133.832 185.331-133.832 306.434 0 230.831 187.123 417.954 417.954 417.954v0 38.002c-251.826 0-455.975-204.149-455.975-455.956s204.149-455.975 455.956-455.975c251.844 0 455.975 204.149 455.975 455.956h-38.002z" />
<glyph unicode="&#xe911;" glyph-name="check" d="M943.46 750.145l-14.1 11.668-474.848-574.591-313.84 376.623-14.045-11.704 327.94-393.539 11.851 14.338z" />
<glyph unicode="&#xe912;" glyph-name="next" d="M677.296 439.908l-314.718 314.718-12.93-12.93 314.718-314.718-314.718-314.718 12.93-12.93 327.648 327.648z" />
<glyph unicode="&#xe913;" glyph-name="prev" d="M690.226 741.696l-12.93 12.93-327.648-327.648 327.648-327.648 12.93 12.93-314.718 314.718z" />
<glyph unicode="&#xe914;" horiz-adv-x="1039" d="M1031.066 447.1c0-282.152-228.729-510.881-510.881-510.881s-510.881 228.729-510.881 510.881c0 282.152 228.729 510.881 510.881 510.881s510.881-228.729 510.881-510.881z" />
<glyph unicode="&#xe915;" glyph-name="adult-txt" horiz-adv-x="1039" d="M525.495 235.875l-2.107 8.251c47.661 6.671 84.262 18.125 109.935 34.363 25.63 16.238 48.012 38.401 67.146 66.532 19.178 28.131 31.554 59.422 37.172 93.829l-1.009 1.229c-13.912-21.373-31.993-36.689-54.2-45.905-22.119-9.216-44.545-12.727-66.971-10.533-35.943 3.467-65.083 19.354-87.334 47.661-22.338 28.307-31.598 61.704-27.868 100.28 3.73 38.532 20.319 70.306 49.767 95.189 29.404 24.927 63.504 35.504 102.080 31.774 43.14-4.169 78.337-24.401 105.415-60.607 27.122-36.206 38.313-79.303 33.485-129.201-6.056-62.406-31.993-115.597-77.942-159.615-45.905-44.062-108.487-68.463-187.57-73.246zM646.972 405.189c22.733-2.194 43.272 4.257 61.616 19.354s28.57 33.398 30.677 54.946c3.335 34.407-5.617 69.735-26.99 106.073-21.285 36.294-48.231 56.043-80.751 59.203-23.699 2.282-43.711-4.345-60.124-19.968-16.457-15.58-25.717-34.626-27.912-57.096-3.423-35.153 4.564-70.218 23.962-105.196 19.354-34.934 45.861-54.024 79.522-57.316zM350.696 573.581c0 2.677-1.009 5.398-3.643 6.451l-23.391 13.429c-1.58 1.097-2.633 2.15-2.633 3.774s2.063 3.248 5.222 4.301c20.802 6.978 41.122 22.601 48.889 33.354 1.58 2.15 2.633 3.73 4.696 3.73h6.232c1.58 0 2.633-1.624 2.633-2.677 0-12.903-1.58-32.827-1.58-58.588v-303.298c0-6.451 1.009-11.279 4.652-15.053l15.624-15.58c1.58-1.624 3.643-3.204 3.643-4.827s-0.527-3.248-3.116-3.248h-78.030c-2.063 0-3.116 1.624-3.116 3.248s2.063 3.204 3.643 4.827l15.624 15.58c3.643 3.774 4.652 8.602 4.652 15.053v299.524z" />
<glyph unicode="&#xe916;" horiz-adv-x="1039" d="M899.451 447.1c0-209.463-169.803-379.266-379.266-379.266s-379.266 169.803-379.266 379.266c0 209.463 169.803 379.266 379.266 379.266s379.266-169.803 379.266-379.266z" />
<glyph unicode="&#xe917;" glyph-name="circle-line" horiz-adv-x="1022" d="M854.624 843.716c0-16.6-13.457-30.057-30.057-30.057s-30.057 13.457-30.057 30.057c0 16.6 13.457 30.057 30.057 30.057s30.057-13.457 30.057-30.057zM774.973 888.308c0-9.415-7.633-17.048-17.048-17.048s-17.048 7.633-17.048 17.048c0 9.415 7.633 17.048 17.048 17.048s17.048-7.633 17.048-17.048zM881.603 800.567l-6.216-7.25c84.905-89.822 137.047-210.927 137.047-344.283 0-276.956-224.524-501.468-501.48-501.468s-501.456 224.512-501.456 501.468 224.512 501.456 501.468 501.456c70.79 0 138.045-14.86 199.12-41.334l5.747 7.923c-62.747 27.508-131.974 42.921-204.867 42.921-282.198 0-510.966-228.769-510.966-510.966s228.769-510.966 510.966-510.966c282.21 0 510.966 228.769 510.966 510.966 0 136.242-53.417 259.931-140.329 351.533z" />
<glyph unicode="&#xe918;" glyph-name="clock2" d="M512 910.222c-251.333 0-455.111-203.764-455.111-455.111s203.778-455.111 455.111-455.111 455.111 203.764 455.111 455.111-203.778 455.111-455.111 455.111zM512 113.778c-188.222 0-341.333 153.125-341.333 341.333s153.111 341.333 341.333 341.333 341.333-153.125 341.333-341.333-153.111-341.333-341.333-341.333zM626.332 455.111h-85.888c-15.723 0-28.444 12.736-28.444 28.444v85.902c0 31.097-25.223 56.32-56.334 56.32h-1.111c-31.111 0-56.334-25.223-56.334-56.32v-171.804c0-31.097 25.223-56.322 56.334-56.322h171.778c31.111 0 56.334 25.223 56.334 56.322v1.14c0 31.095-25.223 56.318-56.334 56.318z" />
<glyph unicode="&#xe919;" glyph-name="mst" horiz-adv-x="1039" d="M591.237-16.252h-122.618l-2.458 0.571c-189.94 46.52-337.267 337.705-337.267 557.137 0 137.32 59.642 248.616 167.997 313.305l0.746 0.439 26.025 14.088c57.359 28.087 124.988 42.965 195.645 42.965 72.5 0 141.577-15.536 199.727-44.896l0.79-0.439 25.015-14.044c106.556-65.435 164.881-175.853 164.881-311.374 0-212.717-134.819-495.96-315.323-556.61l-3.16-1.141zM473.665 25.221h110.681c160.141 56.701 283.945 322.916 283.945 516.279 0 120.6-51.303 218.466-144.474 275.65l-23.874 13.385c-52.313 26.332-114.763 40.244-180.636 40.244-64.206 0-125.427-13.298-176.994-38.532l-24.489-13.254c-95.102-56.921-147.458-155.489-147.458-277.493 0-199.288 135.038-472.875 303.298-516.279zM606.114 321.19c-27.21 0-41.78 12.332-49.197 22.689-16.852 23.479-15.755 62.187 3.291 118.361 30.457 89.66 99.666 152.286 168.216 152.286 22.821 0 43.711-7.373 60.344-21.285 32.344-27.034 48.319-61.529 44.983-97.077-4.608-49.504-44.632-95.672-118.844-137.145-44.808-25.103-81.409-37.83-108.794-37.83zM728.469 573.098c-43.14 0-101.29-42.658-128.982-124.198-19.924-58.72-11.805-76.757-8.865-80.883 0.922-1.317 3.818-5.398 15.492-5.398 19.617 0 51.128 11.542 88.694 32.564 60.739 33.924 94.575 70.218 97.823 104.844 2.589 27.648-15.053 48.67-30.325 61.397-9.304 7.768-20.67 11.674-33.836 11.674zM430.964 321.19c-27.385 0-64.030 12.727-108.882 37.83-74.212 41.516-114.236 87.641-118.844 137.145-3.291 35.548 12.683 69.999 45.027 97.077 16.677 13.912 37.523 21.285 60.388 21.285 68.594 0 137.759-62.626 168.216-152.286 19.047-56.131 20.1-94.882 3.291-118.361-7.417-10.357-21.987-22.689-49.197-22.689zM308.653 573.098c-13.166 0-24.532-3.906-33.792-11.674-15.272-12.771-32.915-33.792-30.325-61.397 3.248-34.626 37.040-70.876 97.823-104.844 37.523-21.022 69.033-32.564 88.65-32.564 11.63 0 14.57 4.038 15.492 5.398 2.984 4.125 11.103 22.163-8.821 80.883-27.736 81.541-85.929 124.198-129.026 124.198z" />
<glyph unicode="&#xe91a;" glyph-name="rsc" horiz-adv-x="1039" d="M985.161 742.28c-46.081 68.77-124.242 109.848-209.031 109.848-91.854 0-180.505-45.993-251.995-130.035-71.491 84.042-160.097 130.035-251.995 130.035-84.788 0-162.95-41.078-209.075-109.848-52.225-77.854-57.667-182.216-15.009-286.271 96.243-234.66 450.537-437.678 465.546-446.192l10.489-5.969 10.533 5.969c15.009 8.514 369.26 211.532 465.502 446.192 42.833 104.011 37.347 208.372-14.965 286.271zM960.848 472.159c-81.804-199.332-377.028-383.479-436.669-419.158-59.598 35.636-354.733 219.651-436.625 419.158-37.742 92.030-33.836 179.539 10.972 246.378 38.181 56.921 103.089 90.932 173.658 90.932 85.666 0 169.138-47.748 235.011-134.38l16.984-22.294 16.94 22.294c65.873 86.632 149.345 134.38 235.011 134.38 70.525 0 135.477-34.012 173.658-90.932 44.852-66.839 48.758-154.348 11.059-246.378zM613.004 522.497l-73.948-205.783-80.795 288.202-53.805-206.661h-207.056v-28.438h229.043l32.871 126.217 76.45-272.622 80.136 223.030 34.275-76.626h200.78v28.438h-182.348z" />
<glyph unicode="&#xe91b;" glyph-name="all" horiz-adv-x="1039" d="M398.181 504.635h-298.954c-32.695 0-59.29 26.595-59.29 59.29v298.954c0 32.695 26.595 59.29 59.29 59.29h298.954c32.695 0 59.29-26.595 59.29-59.29v-298.954c0-32.695-26.595-59.29-59.29-59.29zM99.227 891.23c-15.624 0-28.351-12.727-28.351-28.351v-298.954c0-15.624 12.727-28.394 28.351-28.394h298.954c15.624 0 28.394 12.771 28.394 28.394v298.954c0 15.624-12.771 28.351-28.394 28.351h-298.954zM939.431 504.635h-298.954c-32.695 0-59.29 26.595-59.29 59.29v298.954c0 32.695 26.595 59.29 59.29 59.29h298.954c32.695 0 59.29-26.595 59.29-59.29v-298.954c0-32.695-26.595-59.29-59.29-59.29zM640.477 891.23c-15.624 0-28.394-12.727-28.394-28.351v-298.954c0-15.624 12.771-28.394 28.394-28.394h298.954c15.624 0 28.351 12.771 28.351 28.394v298.954c0 15.624-12.727 28.351-28.351 28.351h-298.954zM398.181-36.659h-298.954c-32.695 0-59.29 26.595-59.29 59.29v298.954c0 32.695 26.595 59.29 59.29 59.29h298.954c32.695 0 59.29-26.595 59.29-59.29v-298.954c0-32.695-26.595-59.29-59.29-59.29zM99.227 349.98c-15.624 0-28.351-12.771-28.351-28.394v-298.954c0-15.624 12.727-28.351 28.351-28.351h298.954c15.624 0 28.394 12.727 28.394 28.351v298.954c0 15.624-12.771 28.394-28.394 28.394h-298.954zM939.431-36.659h-298.954c-32.695 0-59.29 26.595-59.29 59.29v298.954c0 32.695 26.595 59.29 59.29 59.29h298.954c32.695 0 59.29-26.595 59.29-59.29v-298.954c0-32.695-26.595-59.29-59.29-59.29zM640.477 349.98c-15.624 0-28.394-12.771-28.394-28.394v-298.954c0-15.624 12.771-28.351 28.394-28.351h298.954c15.624 0 28.351 12.727 28.351 28.351v298.954c0 15.624-12.727 28.394-28.351 28.394h-298.954z" />
<glyph unicode="&#xe91c;" glyph-name="adt" horiz-adv-x="1039" d="M519.307 930.728c-266.61 0-482.75-216.14-482.75-482.75s216.14-482.75 482.75-482.75 482.75 216.14 482.75 482.75-216.096 482.75-482.75 482.75zM519.307 8.632c-242.648 0-439.39 196.699-439.39 439.39s196.742 439.346 439.39 439.346 439.39-196.699 439.39-439.39-196.699-439.346-439.39-439.346zM226.19 293.674h97.12v308.96h-79.61v44.062c41.648 7.856 71.228 18.081 96.55 33.792h52.488v-386.814h86.895v-57.316h-253.444v57.316zM588.867 318.426c17.467-19.924 44.632-33.178 73.027-33.178 53.717 0 100.149 43.447 104.406 170.147-25.937-31.993-63.986-51.874-97.779-51.874-74.212 0-124.286 46.476-124.286 139.383 0 88.124 60.344 146.054 132.142 146.054 85.052 0 153.866-68.77 153.866-215.438 0-174.975-79.61-245.017-165.32-245.017-51.303 0-87.509 20.539-113.446 47.090l37.391 42.833zM765.071 507.927c-6.671 87.465-39.849 127.314-88.124 127.314-38.006 0-68.199-34.407-68.199-92.337 0-56.701 25.366-89.309 71.798-89.309 27.166 0 57.974 15.711 84.525 54.331z" />
<glyph unicode="&#xe91d;" glyph-name="drm" horiz-adv-x="1039" d="M530.279 36.982c-3.467 0-6.934 0.834-10.094 2.458-19.749 10.226-483.496 254.453-483.496 566.134 0 332.79 250.942 332.79 493.59 332.79s493.59 0 493.59-332.79c0-311.681-463.703-555.908-483.452-566.134-3.204-1.668-6.671-2.458-10.138-2.458zM530.279 894.478c-279.819 0-449.703-19.442-449.703-288.904 0-261.387 382.118-484.33 449.703-521.677 67.541 37.391 449.703 260.553 449.703 521.677-0.044 269.462-169.928 288.904-449.703 288.904zM752.563 489.89c-75.397 0-134.468 40.244-134.468 91.591 0 51.391 59.071 91.635 134.468 91.635s134.468-40.244 134.468-91.635c0-51.347-59.071-91.591-134.468-91.591zM752.563 629.229c-53.41 0-90.581-25.147-90.581-47.748 0-22.558 37.216-47.704 90.581-47.704s90.581 25.147 90.581 47.704c0 22.601-37.172 47.748-90.581 47.748zM334.458 489.89c-75.397 0-134.424 40.244-134.424 91.591 0 51.391 59.027 91.635 134.424 91.635 75.441 0 134.556-40.244 134.556-91.635 0-51.347-59.115-91.591-134.556-91.591zM334.458 629.229c-53.366 0-90.538-25.147-90.538-47.748 0-22.558 37.172-47.704 90.538-47.704 53.454 0 90.669 25.147 90.669 47.704 0 22.601-37.26 47.748-90.669 47.748zM997.844-60.357c-12.113 0-21.943 9.831-21.943 21.943v711.134c0 12.113 9.831 21.943 21.943 21.943s21.943-9.831 21.943-21.943v-711.134c0-12.157-9.787-21.943-21.943-21.943z" />
<glyph unicode="&#xe91e;" glyph-name="pts" horiz-adv-x="1039" d="M666.195 480.059h-14.834c0 125.734-102.299 228.033-228.033 228.033v14.834c125.734 0 228.033 102.299 228.033 228.033h14.834c0-125.734 102.299-228.033 228.033-228.033v-14.834c-125.734 0-228.033-102.299-228.033-228.033zM483.013 715.509c86.017-21.812 153.953-89.704 175.721-175.765 21.855 86.017 89.704 153.953 175.765 175.765-86.061 21.812-153.953 89.704-175.765 175.765-21.768-86.017-89.66-153.953-175.721-175.765zM143.421 540.666h-14.834c0 60.3-49.065 109.365-109.409 109.365v14.834c60.344 0 109.409 49.065 109.409 109.365h14.79c0-60.3 49.065-109.365 109.409-109.365v-14.834c-60.3 0-109.365-49.065-109.365-109.365zM61.485 657.448c34.539-12.551 61.968-39.98 74.519-74.475 12.508 34.495 39.937 61.924 74.475 74.475-34.539 12.551-61.968 39.98-74.475 74.475-12.551-34.495-39.98-61.924-74.519-74.475zM325.11 73.452h-14.834c0 95.409-77.635 173-173.044 173v14.877c95.409 0 173.044 77.635 173.044 173h14.834c0-95.409 77.635-173 173-173v-14.834c-95.409 0-173-77.635-173-173.044zM189.545 253.913c61.616-17.862 110.242-66.488 128.104-128.104 17.906 61.616 66.532 110.242 128.104 128.104-61.573 17.906-110.199 66.532-128.104 128.104-17.862-61.616-66.488-110.242-128.104-128.104zM467.138 446.394l52.459 52.437 505.471-505.686-52.459-52.437-505.471 505.686zM351.127 562.292l52.437 52.459 89.739-89.701-52.437-52.459-89.739 89.701zM234.221 399.747h-14.79c0 31.686-25.761 57.447-57.491 57.447v14.834c31.686 0 57.491 25.761 57.491 57.491h14.834c0-31.686 25.761-57.491 57.491-57.491v-14.834c-31.73 0-57.535-25.717-57.535-57.447zM193.846 464.655c14.307-7.066 25.937-18.696 33.003-33.003 7.066 14.351 18.696 25.981 33.003 33.003-14.307 7.066-25.937 18.696-33.003 33.003-7.066-14.307-18.696-25.937-33.003-33.003z" />
<glyph unicode="&#xe91f;" glyph-name="bullhorn" d="M1024 530.744c0 200.926-58.792 363.938-131.482 365.226 0.292 0.006 0.578 0.030 0.872 0.030h-82.942c0 0-194.8-146.336-475.23-203.754-8.56-45.292-14.030-99.274-14.030-161.502s5.466-116.208 14.030-161.5c280.428-57.418 475.23-203.756 475.23-203.756h82.942c-0.292 0-0.578 0.024-0.872 0.032 72.696 1.288 131.482 164.298 131.482 365.224zM864.824 220.748c-9.382 0-19.532 9.742-24.746 15.548-12.63 14.064-24.792 35.96-35.188 63.328-23.256 61.232-36.066 143.31-36.066 231.124 0 87.81 12.81 169.89 36.066 231.122 10.394 27.368 22.562 49.266 35.188 63.328 5.214 5.812 15.364 15.552 24.746 15.552 9.38 0 19.536-9.744 24.744-15.552 12.634-14.064 24.796-35.958 35.188-63.328 23.258-61.23 36.068-143.312 36.068-231.122 0-87.804-12.81-169.888-36.068-231.124-10.39-27.368-22.562-49.264-35.188-63.328-5.208-5.806-15.36-15.548-24.744-15.548zM251.812 530.744c0 51.95 3.81 102.43 11.052 149.094-47.372-6.554-88.942-10.324-140.34-10.324-67.058 0-67.058 0-67.058 0l-55.466-94.686v-88.17l55.46-94.686c0 0 0 0 67.060 0 51.398 0 92.968-3.774 140.34-10.324-7.236 46.664-11.048 97.146-11.048 149.096zM368.15 317.828l-127.998 24.51 81.842-321.544c4.236-16.634 20.744-25.038 36.686-18.654l118.556 47.452c15.944 6.376 22.328 23.964 14.196 39.084l-123.282 229.152zM864.824 411.27c-3.618 0-7.528 3.754-9.538 5.992-4.87 5.42-9.556 13.86-13.562 24.408-8.962 23.6-13.9 55.234-13.9 89.078s4.938 65.478 13.9 89.078c4.006 10.548 8.696 18.988 13.562 24.408 2.010 2.24 5.92 5.994 9.538 5.994 3.616 0 7.53-3.756 9.538-5.994 4.87-5.42 9.556-13.858 13.56-24.408 8.964-23.598 13.902-55.234 13.902-89.078 0-33.842-4.938-65.478-13.902-89.078-4.004-10.548-8.696-18.988-13.56-24.408-2.008-2.238-5.92-5.992-9.538-5.992z" />
<glyph unicode="&#xe920;" glyph-name="touch_app" d="M804 260.667c22-10 38-32 38-58v-8l-32-226c-4-32-30-54-62-54h-290c-18 0-32 6-44 18l-212 212 34 34c8 8 20 14 34 14 4 0 6-2 10-2l146-30v458c0 36 28 64 64 64s64-28 64-64v-256h34c8 0 14-2 22-4zM384 458.667c-52 34-86 94-86 160 0 106 86 192 192 192s192-86 192-192c0-66-32-126-84-160v160c0 58-50 106-108 106s-106-48-106-106v-160z" />
<glyph unicode="&#xe921;" glyph-name="user-heart" horiz-adv-x="1039" d="M519.307 9.905l-6.89 3.906c-14.746 8.338-361.799 207.275-455.716 436.318-41.78 101.816-36.777 199.683 14.131 275.562 44.15 65.83 118.976 105.152 200.209 105.152 90.713 0 178.31-46.739 248.309-132.054 69.999 85.315 157.596 132.054 248.353 132.054 81.234 0 156.060-39.322 200.209-105.152 50.908-75.879 55.911-173.746 14.131-275.562-93.961-229.043-440.97-427.936-455.716-436.318l-7.022-3.906zM270.998 802.799c-71.886 0-138.023-34.67-176.95-92.688-45.554-67.892-49.592-156.455-11.498-249.362 83.252-202.93 386.946-389.096 436.757-418.544 49.855 29.492 353.548 215.745 436.801 418.544 38.093 92.907 34.012 181.47-11.542 249.362-38.927 58.062-105.064 92.688-176.906 92.688-86.676 0-170.937-47.968-237.162-135.126l-11.147-14.658-11.147 14.658c-66.312 87.158-150.574 135.126-237.206 135.126z" />
<glyph unicode="&#xe922;" glyph-name="user-play" horiz-adv-x="1039" d="M930.873 93.508h-823.088c-45.203 0-81.98 36.777-81.98 82.024v544.981c0 45.203 36.777 81.98 81.98 81.98h823.088c45.203 0 81.98-36.777 81.98-81.98v-545.024c0-45.203-36.777-81.98-81.98-81.98zM107.785 745.176c-13.605 0-24.664-11.059-24.664-24.664v-545.024c0-13.605 11.059-24.708 24.664-24.708h823.088c13.605 0 24.664 11.103 24.664 24.708v545.024c0 13.605-11.059 24.664-24.664 24.664h-823.088zM404.764 247.681c-4.959 0-9.918 1.273-14.351 3.862-8.865 5.135-14.351 14.614-14.351 24.796v343.323c0 10.226 5.486 19.705 14.351 24.796 8.909 5.135 19.793 5.135 28.658 0l297.286-171.639c8.909-5.091 14.351-14.57 14.351-24.796s-5.442-19.705-14.351-24.796l-297.242-171.683c-4.476-2.589-9.392-3.862-14.351-3.862zM433.421 570.026v-244.008l211.313 122.004-211.313 122.004z" />
<glyph unicode="&#xe923;" glyph-name="member" horiz-adv-x="1039" d="M519.307 476.373c-123.496 0-223.996 100.5-223.996 223.996s100.5 223.996 223.996 223.996 223.996-100.5 223.996-223.996-100.5-223.996-223.996-223.996zM519.307 880.829c-99.446 0-180.417-80.926-180.417-180.417s80.97-180.417 180.417-180.417c99.49 0 180.417 80.97 180.417 180.417 0 99.49-80.926 180.417-180.417 180.417zM915.294-21.43h-791.885c-12.025 0-21.812 9.743-21.812 21.812 0 230.316 187.395 417.71 417.754 417.71 230.403 0 417.754-187.395 417.754-417.71-0.044-12.069-9.787-21.812-21.812-21.812zM145.79 22.105h747.077c-11.323 196.216-174.536 352.363-373.561 352.363-198.981 0-362.15-156.148-373.517-352.363z" />
<glyph unicode="&#xe924;" glyph-name="healtxt2" horiz-adv-x="2440" d="M324.327 702.284c4.746-18.983-3.729-34.916-25.424-47.797-36.611-40.001-66.527-80.171-89.493-120.51-23.051-40.34-41.357-83.9-54.916-130.68 9.492-10.848 14.746-20.509 15.763-28.984s-0.339-15.254-4.068-20.339-9.322-8.475-16.78-10.17c-7.542-1.695-14.661-1.525-21.356 0.508-13.56 6.102-23.39 17.458-29.492 34.068-6.187 16.61-7.542 33.39-4.068 50.34 33.221 120.68 93.9 216.614 182.037 287.801 3.39 2.712 7.627 4.237 12.712 4.576s9.915-0.169 14.661-1.525 8.983-3.559 12.712-6.61c3.729-3.051 6.356-6.61 7.712-10.678zM311.022 502.959c4.068-40.679 9.322-81.696 15.763-123.053s16.441-79.662 30-114.917c2.712-6.78 2.373-12.543-1.017-17.288s-8.051-8.051-14.238-10.17c-8.136-2.712-16.949-1.186-26.441 4.576s-15.932 13.39-19.238 22.882c-12.204 31.187-22.119 64.747-29.492 100.68-7.542 35.933-12.966 73.561-16.271 112.883 0 4.068-0.847 7.119-2.542 9.153s-3.644 4.068-5.678 6.187c-2.034 2.034-3.729 4.237-5.085 6.61-1.356 2.288-1.949 5.17-1.949 8.559 0.678 5.424 3.898 11.865 9.661 19.322s16.441 11.187 32.034 11.187c21.695-2.034 33.136-14.238 34.492-36.611zM603.908 696.182c1.356 9.492 4.407 18.475 9.153 26.95s12.543 12.034 23.39 10.678c8.136-0.678 16.61-5.932 25.424-15.763s11.865-23.221 9.153-40.17c-5.424-40.679-8.814-80.51-10.17-119.494s-1.356-81.866 0-128.646c0-9.492-1.356-16.949-4.068-22.373s-5.763-9.661-9.153-12.712c-3.39-3.051-7.119-5.085-11.187-6.102s-7.119-1.186-9.153-0.508c-7.458 2.034-13.39 6.61-17.797 13.729-4.322 7.119-7.288 15.424-8.644 25-2.627 21.611-4.492 44.662-5.593 69.069-0.932 24.492-1.186 48.475-0.424 72.205-27.882-12.204-55.679-25.763-83.391-40.594-27.797-15-52.289-28.899-73.306-41.78-4.746-2.712-10-3.898-15.763-3.559s-11.017 1.695-15.763 4.068c-4.661 2.373-8.814 5.424-12.204 9.153s-5.085 7.627-5.085 11.695c0 6.102 3.051 12.882 9.153 20.339s14.577 14.577 25.424 21.356c21.695 13.56 47.628 27.628 77.798 42.204s61.865 29.662 95.086 45.255c1.356 10.848 2.542 21.187 3.559 31.017 1.102 9.831 2.203 19.492 3.559 28.984zM537.89 360.583c-3.475-19.661-6.78-37.797-10.17-54.408s-5.763-35.424-7.119-56.442c24.407 2.712 52.374 9.492 83.9 20.339s64.238 26.102 98.137 45.763c6.102 3.39 12.712 4.576 19.831 3.559 7.034-1.017 12.288-3.898 15.678-8.644 3.39-4.068 3.22-11.356-0.508-21.865-3.644-10.509-11.949-20.509-24.831-29.916-30.509-21.695-62.713-38.984-96.612-51.865s-68.476-22.034-103.731-27.458c-7.542-1.441-14.746-1.61-21.865-0.593s-13.814 3.898-19.831 8.644c-6.187 4.746-11.102 11.356-14.831 19.831s-5.593 19.492-5.593 33.051c0 12.204 1.186 25.085 3.559 38.645s4.915 26.441 7.627 38.645c2.712 12.204 5.593 23.051 8.644 32.543s5.254 16.61 6.61 21.356c2.034 5.424 6.695 10.339 13.814 14.746s14.746 5.932 22.882 4.576c18.221-2.034 26.441-12.204 24.407-30.509zM995.525 842.625c-4.068-13.56-10.17-28.306-18.305-44.238s-14.916-28.645-20.339-38.136c8.136 2.034 20.509 4.746 37.119 8.136s33.729 5.763 51.357 7.119 33.899 0.508 48.814-2.542c14.916-3.051 24.407-10.339 28.475-21.865 0-13.56-3.898-21.017-11.695-22.373s-16.441-2.373-25.933-3.051c-17.627-1.356-36.441-3.729-56.442-7.119s-39.323-7.119-57.967-11.187c-18.644-4.068-35.933-8.136-51.865-12.204s-28.645-7.458-38.136-10.17c-6.102-1.356-12.034-0.678-17.797 2.034s-12.712 8.814-20.848 18.305c-6.102 8.136-2.373 18.305 11.187 30.509 18.305 17.627 34.746 36.611 49.323 56.95s24.916 42.713 31.017 67.12c0.678 5.424-1.695 9.153-7.119 11.187s-12.204 3.22-20.339 3.559c-8.136 0.339-16.78-0.169-25.933-1.525s-17.797-2.373-25.933-3.051c-7.458-1.356-13.221-1.356-17.288 0s-8.475 4.068-13.221 8.136c-2.712-26.441-3.559-56.103-2.542-88.985s3.22-65.594 6.61-98.137c0.678-7.458-1.695-14.068-7.119-19.831s-11.865-9.322-19.322-10.678c-4.746-0.678-9.661 1.017-14.746 5.085s-8.305 7.797-9.661 11.187c-11.526 32.543-18.475 65.764-20.848 99.663s-3.559 71.188-3.559 111.866c0 7.458 2.712 15.085 8.136 22.882s15.593 12.034 30.509 12.712c7.458 0 14.238-1.525 20.339-4.576 6.017-3.051 9.746-6.61 11.187-10.593 4.068 4.068 10.509 7.458 19.322 10.17 10.17 2.712 21.526 4.746 34.068 6.102s25.255 1.356 38.136 0c12.882-1.356 25.424-4.237 37.628-8.644s23.39-11.017 33.56-19.831c8.136-7.458 12.712-15.763 13.729-24.916 1.017-9.237-0.169-18.899-3.559-29.068zM1117.561 337.193c-7.458-16.949-18.814-34.746-34.068-53.391s-30.678-34.746-46.272-48.306c9.492 2.712 20.678 3.729 33.56 3.051s23.051-4.746 30.509-12.204c7.458-8.136 11.017-17.458 10.678-27.967s-3.898-21.526-10.678-33.051c-13.56-21.695-27.967-42.882-43.221-63.56s-31.017-39.831-47.289-57.459c16.949 4.746 33.051 9.661 48.306 14.746s30.509 10 45.763 14.746c15.254 4.746 31.017 9.322 47.289 13.729s33.899 8.983 52.882 13.729c4.746 0.678 10.339 1.186 16.78 1.525s12.373-0.169 17.797-1.525c5.424-1.356 9.831-3.729 13.221-7.119s4.746-8.475 4.068-15.254c-1.356-7.458-3.22-14.746-5.593-21.865s-6.949-11.695-13.729-13.729c-19.661-5.424-38.306-10.678-55.933-15.763s-35.763-10.339-54.408-15.763c-18.644-5.424-37.967-11.356-57.967-17.797s-42.204-13.729-66.611-21.865c-5.424-2.034-12.034-3.729-19.831-5.085s-15.593-1.695-23.39-1.017c-7.797 0.678-15.424 2.542-22.882 5.593s-13.56 7.966-18.305 14.746c-4.746 6.102-7.458 11.865-8.136 17.288s-0.339 10.509 1.017 15.254c1.356 4.746 3.559 9.322 6.61 13.729s6.271 8.305 9.661 11.695c19.661 22.373 36.611 43.221 50.848 62.543s28.136 39.831 41.696 61.526c-10.848-1.356-21.695-3.559-32.543-6.61s-21.356-5.593-31.526-7.627c-9.492-2.034-18.644-0.169-27.458 5.593s-13.221 12.712-13.221 20.848c-1.356 10.17 4.068 20.339 16.271 30.509 6.78 6.102 15.254 13.56 25.424 22.373s20.678 18.644 31.526 29.492 21.187 22.204 31.017 34.068c9.831 11.865 17.458 23.56 22.882 35.085-18.305 0-38.645-3.559-61.018-10.678s-43.391-13.729-63.052-19.831c-2.034-1.356-5.424-2.034-10.17-2.034s-9.831 0.508-15.254 1.525c-5.424 1.017-10.509 2.881-15.254 5.593s-8.136 6.441-10.17 11.187c-2.034 6.78-2.203 12.882-0.508 18.305s4.576 10.17 8.644 14.238c4.068 4.068 8.644 7.458 13.729 10.17s9.322 4.746 12.712 6.102c4.068 0.678 8.475 2.373 13.221 5.085 9.492 15.593 18.305 32.543 26.441 50.848s15.593 36.441 22.373 54.408 13.221 35.255 19.322 51.865c6.102 16.61 12.204 31.017 18.305 43.221-33.899-8.136-66.611-16.441-98.137-24.916s-61.865-15.424-91.018-20.848c-10.17-2.034-19.238 1.102-26.95 9.153-7.797 8.136-12.373 15.932-13.814 23.39-1.356 5.424-0.169 11.017 3.644 16.78 3.644 5.763 8.305 9.322 13.729 10.678 40.679 12.882 86.103 24.916 136.273 36.102s101.019 18.475 152.545 21.865c22.373 1.356 42.713-1.356 61.018-8.136 6.102-2.712 9.153-7.119 9.153-13.221 0-2.712-1.186-6.61-3.559-11.695s-6.61-8.305-12.712-9.661c-14.238-2.712-28.306-5.424-42.204-8.136s-27.628-5.763-41.187-9.153c4.068-6.102 6.102-11.526 6.102-16.271 0-7.458-1.525-17.797-4.576-31.017s-6.78-27.119-11.187-41.696c-4.407-14.577-8.983-28.645-13.729-42.204s-8.814-24.068-12.204-31.526c-5.424-11.526-12.543-22.034-21.356-31.526 12.204 2.034 24.407 3.729 36.611 5.085s24.746 2.034 37.628 2.034c20.339 0 35.424-6.61 45.255-19.831s11.949-26.611 6.61-40.17zM1430.702 577.197c-6.102-19.661-12.373-39.492-18.814-59.493s-12.712-39.831-18.814-59.493c21.017-0.678 39.153-6.102 54.408-16.271s24.916-22.034 28.984-35.594c4.068-11.526 5.254-23.56 3.559-36.102s-5.424-24.916-11.187-37.119c-5.763-12.204-13.051-23.899-21.865-35.085s-18.644-20.848-29.492-28.984c-6.78-5.424-17.458-11.017-32.034-16.78s-27.967-7.627-40.17-5.593c-19.661 3.39-32.882 14.746-39.662 34.068s-8.475 39.831-5.085 61.526c3.39 23.051 7.288 43.56 11.695 61.526s9.153 35.424 14.238 52.374c5.085 16.949 10.678 34.238 16.78 51.865s12.882 37.967 20.339 61.018c-20.339-2.712-40.001-7.797-58.984-15.254s-35.255-15.254-48.814-23.39c-8.814-5.424-18.475-6.441-28.984-3.051s-15.763 11.865-15.763 25.424c-1.356 10.848 4.407 21.356 17.288 31.526s28.814 18.814 47.797 25.933c18.983 7.119 38.645 12.458 58.984 16.271 20.339 3.729 37.289 4.915 50.848 3.559 18.983-2.034 31.695-8.305 38.136-18.814s8.644-21.865 6.61-34.068zM1434.769 709.403c2.034-5.424 3.898-12.373 5.593-20.848s2.373-16.271 2.034-23.39-2.542-12.882-6.61-17.288c-4.068-4.407-11.187-5.254-21.356-2.542-6.102 2.034-10.593 5.593-13.221 10.678-2.712 5.085-5.763 10.339-9.153 15.763-13.56 26.441-29.492 52.374-47.797 77.798s-37.289 48.306-56.95 68.645c-10.848 9.492-17.627 19.153-20.339 28.984s0.678 18.475 10.17 25.933c8.814 5.424 17.797 6.61 26.95 3.559s17.458-7.966 24.916-14.746c12.204-11.526 24.068-24.068 35.594-37.628s21.865-27.289 31.017-41.187 17.119-27.119 23.899-39.662 11.865-23.899 15.254-34.068zM1361.548 311.769c7.458 4.068 15.085 8.814 22.882 14.238 7.797 5.339 14.746 11.526 20.848 18.305s10.509 14.068 13.221 21.865c2.712 7.797 2.712 15.763 0 23.899s-7.288 14.238-13.729 18.305-13.729 7.458-21.865 10.17c-4.746-17.627-8.983-35.424-12.712-53.391s-6.61-35.763-8.644-53.391zM1669.689 578.214c30.509 15.593 60.17 24.068 88.985 25.424s54.747-1.695 77.798-9.153c6.102-2.034 10.339-4.746 12.712-8.136s3.729-6.61 4.068-9.661c0.339-3.051 0.169-5.763-0.508-8.136s-1.017-3.898-1.017-4.576c-7.458-12.204-16.271-18.305-26.441-18.305-14.238 0-26.611-0.169-37.119-0.508s-20-1.017-28.475-2.034c-8.475-1.017-16.61-2.542-24.407-4.576s-16.441-4.407-25.933-7.119c-6.102-2.034-11.017-2.542-14.746-1.525s-6.949 2.373-9.661 4.068c-2.712 1.695-4.915 3.22-6.61 4.576s-3.559 1.695-5.593 1.017c-1.356-0.678-2.034-4.407-2.034-11.187 0-31.865 1.186-61.357 3.559-88.476s4.576-53.56 6.61-79.323c0.678-8.814-1.525-17.966-6.61-27.458s-12.373-13.56-21.865-12.204c-6.78 1.356-13.899 6.102-21.356 14.238s-11.865 16.61-13.221 25.424c-10.17 65.086-14.746 130.85-13.729 197.291s5.254 128.477 12.712 186.105c0.678 6.78 3.22 11.695 7.627 14.746s9.153 4.746 14.238 5.085c5.085 0.339 10.339-0.339 15.763-2.034 5.339-1.695 9.831-3.898 13.221-6.61 2.712-2.034 6.102-5.932 10.17-11.695s5.424-11.356 4.068-16.78c-4.068-23.051-7.119-47.628-9.153-73.73s-3.051-51.018-3.051-74.747zM2133.425 552.79c-4.068-14.238-8.136-30.339-12.204-48.306s-7.627-36.441-10.678-55.425c-3.051-18.983-5.085-37.458-6.102-55.425s-0.508-34.407 1.525-49.323c0-13.56-3.729-23.221-11.187-28.984s-13.899-7.966-19.322-6.61c-9.492 2.034-16.949 7.288-22.373 15.763s-9.492 17.119-12.204 25.933c-2.712 9.492-3.898 23.051-3.559 40.679s1.525 36.78 3.559 57.459 4.746 41.526 8.136 62.543c3.39 21.017 7.119 40.001 11.187 56.95-8.136 0-17.627-1.525-28.475-4.576s-22.204-6.949-34.068-11.695c-11.865-4.746-23.729-10-35.594-15.763s-22.882-11.017-33.051-15.763c-7.458-3.475-16.78-3.22-27.967 0.508s-19.153 9.322-23.899 16.78-3.729 14.746 3.051 21.865 13.899 13.39 21.356 18.814c9.492 6.78 21.187 13.39 35.085 19.831s28.306 12.373 43.221 17.797c14.916 5.424 29.831 9.661 44.747 12.712s28.136 4.576 39.662 4.576c26.441-1.356 45.933-9.492 58.476-24.407s16.102-33.56 10.678-55.933zM2350.039 391.092c0-11.526-2.034-19.153-6.102-22.882s-10.17-5.593-18.305-5.593c-2.712 0-6.102 0.678-10.17 2.034s-8.136 3.559-12.204 6.61c-4.068 3.051-7.627 6.61-10.678 10.678s-4.915 8.814-5.593 14.238c-2.712 33.221-4.407 64.069-5.085 92.544s-1.017 55.594-1.017 81.357c0 25.763 0.678 50.34 2.034 73.73s2.712 46.611 4.068 69.662c0 7.458 3.051 13.729 9.153 18.814s12.882 7.627 20.339 7.627c10.848 0 19.492-5.424 25.933-16.271s9.322-21.017 8.644-30.509c-1.356-28.475-2.542-54.916-3.559-79.323s-1.525-48.475-1.525-72.205c0-23.729 0.339-47.713 1.017-71.696 0.678-24.068 1.695-50.255 3.051-78.815z" />
<glyph unicode="&#xe925;" glyph-name="healtxt" horiz-adv-x="3586" d="M151.528 598.977c-3.39-15.593-6.102-31.865-8.136-48.814s-3.39-33.56-4.068-49.831c-0.678-16.271-0.678-31.865 0-46.78s1.695-27.797 3.051-38.645c22.966 7.458 48.306 21.187 75.764 41.187s52.713 41.526 75.764 64.577c6.102 6.78 12.034 12.034 17.797 15.763 5.763 3.644 11.356 3.898 16.78 0.508 0.678-0.678 1.017-3.051 1.017-7.119s-0.508-8.814-1.525-14.238c-1.017-5.424-2.712-11.187-5.085-17.288s-5.593-11.526-9.661-16.271c-22.373-30.509-45.085-55.933-68.137-76.272s-48.136-37.967-75.255-52.882c-10.848-6.102-21.865-9.492-33.051-10.17s-20.509 2.712-27.967 10.17c-14.238 14.916-23.729 35.085-28.475 60.509s-6.78 51.357-6.102 77.798 3.22 51.018 7.627 73.73c4.407 22.712 8.305 39.153 11.695 49.323 2.712 7.458 6.441 12.543 11.187 15.254s9.831 4.407 15.254 5.085c9.492 0.678 17.627-2.712 24.407-10.17s9.153-15.932 7.119-25.424zM625.434 573.553c-21.695-7.458-41.696-14.238-60.001-20.339s-39.323-13.221-63.052-21.356c-9.492-3.39-18.644-4.407-27.458-3.051s-16.949 3.729-24.407 7.119c1.356-44.069 4.746-82.544 10.17-115.426s10.848-62.204 16.271-87.968c1.356-5.424 0.508-11.017-2.542-16.78s-8.983-7.966-17.797-6.61c-7.458 1.356-15.254 4.915-23.39 10.678s-13.899 13.729-17.288 23.899c-9.492 25.763-16.78 53.73-21.865 83.9s-8.305 60.848-9.661 92.035c-1.356 31.187-1.356 61.696 0 91.527s3.729 57.628 7.119 83.391c2.034 14.238 5.424 24.407 10.17 30.509s9.492 9.153 14.238 9.153c15.593 0 26.441-7.458 32.543-22.373s8.475-30.848 7.119-47.797c-1.356-14.916-2.373-29.153-3.051-42.713s-1.356-27.119-2.034-40.679c21.695 10.848 47.628 20.17 77.798 27.967s61.526 14.068 94.069 18.814c27.797 4.068 42.035 0.339 42.713-11.187 1.356-9.492-2.034-18.136-10.17-25.933s-17.966-13.39-29.492-16.78zM1119.68 369.143c-5.424 0-10.17 2.034-14.238 6.102s-7.458 9.153-10.17 15.254c-2.712 6.102-4.915 12.882-6.61 20.339s-2.881 14.916-3.559 22.373c-3.39 23.729-5.424 50.17-6.102 79.323s-0.339 57.289 1.017 84.408c-31.865-10.17-63.73-20.848-95.595-32.034s-57.967-21.187-78.306-30c3.39-15.593 3.051-29.831-1.017-42.713-7.458-25.085-21.695-46.441-42.713-64.069-10.17-8.814-21.356-16.102-33.56-21.865s-24.746-8.983-37.628-9.661c-14.238-0.678-26.78 2.542-37.628 9.661s-19.322 16.441-25.424 27.967c-6.78 11.526-11.187 24.407-13.221 38.645s-2.034 28.136 0 41.696c5.424 28.475 15.424 52.204 30 71.188s28.984 35.933 43.221 50.848c10.17 9.492 18.644 13.729 25.424 12.712s11.865-4.576 15.254-10.678c7.458-12.204 9.492-25.763 6.102-40.679 15.593 0.678 30.085-3.39 43.73-12.204 11.526 4.746 25.594 10.17 42.204 16.271s34.407 12.373 53.391 18.814c18.983 6.441 37.967 12.543 56.95 18.305s36.611 11.017 52.882 15.763c0 4.746 0.339 8.475 1.017 11.187 1.356 15.593 5.593 28.814 12.712 39.662 7.119 10.763 15.763 16.271 25.933 16.271 9.492 0 16.78-4.576 21.865-13.729s7.627-17.458 7.627-24.916c-5.424-44.747-7.966-90.001-7.627-135.765s2.203-90.679 5.593-134.748c0-15.593-3.39-26.78-10.17-33.56s-13.899-10.17-21.356-10.17zM782.047 463.721c12.882 4.746 26.611 12.034 41.187 21.865s24.916 21.865 31.017 36.102c5.339 14.238 2.034 25.763-10.17 34.577-10.17 6.78-20.678 8.814-31.526 6.102-8.814-11.526-16.441-26.441-22.882-44.747s-8.983-36.272-7.627-53.899zM1267.14 374.228c-7.458 0-13.729 4.068-18.814 12.204s-9.322 17.627-12.712 28.475c-4.746 21.017-7.966 43.899-9.661 68.645s-2.542 49.831-2.542 75.255c0 25.424 0.847 50.509 2.542 75.255s3.898 47.289 6.61 67.628c1.356 11.526 4.576 21.187 9.661 28.984s12.034 10.678 20.848 8.644c9.492-3.475 17.627-11.356 24.407-23.899s9.153-25.594 7.119-39.153c-5.424-36.611-8.305-77.798-8.644-123.561s1.525-91.357 5.593-136.782c1.356-10.17 0-19.661-4.068-28.475s-10.848-13.221-20.339-13.221zM1825.454 340.668c-11.526 0-20 6.949-25.424 20.848s-8.475 28.221-9.153 43.221c-1.356 21.695-2.203 45.763-2.542 72.205s-0.169 52.543 0.508 78.306c-34.577-16.271-69.323-33.56-104.239-51.865s-68.645-34.577-101.188-48.814c-2.712-16.271-5.339-33.729-7.627-52.374-2.373-18.644-5.254-39.492-8.644-62.543-1.356-9.492-4.915-16.949-10.678-22.373s-13.39-7.458-22.882-6.102c-6.78 1.356-11.865 3.898-15.254 7.627s-5.932 8.136-7.627 13.221-2.712 10.678-3.051 16.78c-0.339 6.102-0.508 12.204-0.508 18.305 4.068 42.713 9.322 83.73 15.763 123.053s14.407 82.035 23.899 128.138c-41.357-2.034-85.086-15.593-131.189-40.679-5.424-3.39-12.119-4.576-19.831-3.559s-14.407 6.61-19.831 16.78c-3.39 6.102-4.746 12.543-4.068 19.322s3.051 12.204 7.119 16.271c10.17 9.492 22.373 17.797 36.611 24.916s29.153 12.882 44.747 17.288c15.593 4.407 31.695 7.797 48.306 10.17s32.373 3.559 47.289 3.559c10.848 0 20.509-2.034 28.984-6.102s15.254-9.322 20.339-15.763c5.085-6.441 8.475-13.729 10.17-21.865s1.864-15.932 0.508-23.39c-3.39-14.238-6.441-27.628-9.153-40.17s-5.424-24.916-8.136-37.119c32.543 13.56 64.069 27.797 94.578 42.713s62.713 30.848 96.612 47.797c0 1.356 0.085 2.881 0.508 4.576 0.339 1.695 0.508 3.22 0.508 4.576 0 13.56 3.898 26.272 11.695 38.136s16.78 17.797 26.95 17.797c9.492 0 17.119-4.576 22.882-13.729s8.644-17.458 8.644-24.916c-3.39-45.424-5.254-90.34-5.593-134.748s0.169-89.662 1.525-135.765c0-15.678-3.475-26.78-10.17-33.56-6.78-6.78-13.899-10.17-21.356-10.17zM1999.355 344.736c-6.102 0-11.187 2.373-15.254 7.119s-7.627 10.678-10.678 17.797c-3.051 7.119-5.424 14.746-7.119 22.882s-2.881 15.593-3.559 22.373c-3.39 43.391-4.746 86.612-4.068 129.663s2.712 85.595 6.102 127.629c1.356 11.526 4.576 21.187 9.661 28.984s12.034 10.678 20.848 8.644c9.492-3.39 17.627-11.526 24.407-24.407s9.831-26.102 9.153-39.662c-2.034-39.323-3.729-80.679-5.085-124.070s-1.356-88.476 0-135.256c0.678-10.17-0.847-19.661-4.576-28.475s-10.339-13.221-19.831-13.221zM2597.331 635.588c-8.136-18.983-16.271-37.458-24.407-55.425s-15.932-35.763-23.39-53.391c18.983-4.068 35.085-12.204 48.306-24.407s21.526-23.729 24.916-34.577c2.712-11.526 2.542-23.56-0.508-36.102s-8.136-24.746-15.254-36.611c-7.119-11.865-15.763-22.797-25.933-32.543-10.17-9.831-21.356-18.136-33.56-24.916-6.78-4.746-16.441-9.322-28.984-13.729s-24.916-4.915-37.119-1.525c-9.492 2.712-17.119 7.458-22.882 14.238s-10 14.746-12.712 23.899c-2.712 9.153-3.898 18.983-3.559 29.492s1.864 21.187 4.576 32.034c6.102 22.373 11.865 42.035 17.288 58.984s11.187 33.051 17.288 48.306c6.102 15.254 12.712 31.017 19.831 47.289s15.424 35.255 24.916 56.95c-17.627-1.356-34.068-3.475-49.323-6.102-15.254-2.712-31.017-6.78-47.289-12.204-4.746-2.034-9.831-3.051-15.254-3.051s-10.509 1.017-15.254 3.051c-4.746 2.034-8.559 5.254-11.187 9.661-2.712 4.407-3.729 10-3.051 16.78 0 8.136 4.915 15.593 14.746 22.373s21.526 12.543 35.085 17.288c19.661 6.78 41.696 11.187 66.103 13.221s44.408 1.356 60.001-2.034c18.983-4.068 30.848-12.034 35.594-23.899s5.085-22.882 1.017-33.051zM2598.348 734.234c-8.136-3.475-15.763-3.729-22.882-1.017s-14.068 6.78-20.848 12.204l-99.663 102.714c-5.424 5.424-10 13.56-13.729 24.407s-2.881 20 2.542 27.458c2.712 4.068 7.797 6.61 15.254 7.627s14.238-0.508 20.339-4.576c15.593-9.492 29.831-20.848 42.713-34.068s24.238-26.441 34.068-39.662c9.831-13.221 18.305-25.594 25.424-37.119s12.712-20.678 16.78-27.458c2.034-3.39 3.39-8.814 4.068-16.271s-0.678-12.204-4.068-14.238zM2501.736 385.414c8.136 2.712 16.271 6.61 24.407 11.695s15.593 10.678 22.373 16.78c6.78 6.102 11.865 12.882 15.254 20.339s4.407 15.254 3.051 23.39c-2.034 9.492-5.763 16.441-11.187 20.848s-11.865 9.661-19.322 15.763c-7.458-17.627-14.068-35.424-19.831-53.391s-10.678-36.441-14.746-55.425zM2908.523 399.652c-2.034-7.458-6.271-15.932-12.712-25.424s-13.221-18.814-20.339-27.967-14.407-17.627-21.865-25.424c-7.458-7.797-13.221-13.729-17.288-17.797 18.305-2.034 34.577-6.61 48.814-13.729s21.356-17.119 21.356-30c0-8.136-3.39-19.492-10.17-34.068s-15.085-29.492-24.916-44.747c-9.831-15.254-20.17-29.831-31.017-43.73s-20-24.577-27.458-32.034c10.848 2.712 25.933 6.271 45.255 10.678s38.814 8.136 58.476 11.187c19.661 3.051 37.797 4.407 54.408 4.068s28.221-3.559 35.085-9.661c1.356-2.034 2.712-4.407 4.068-7.119 2.712-5.424 3.051-11.187 1.017-17.288-3.39-8.136-12.204-14.238-26.441-18.305l-189.156-42.713c-17.627-4.746-32.204-4.407-43.73 1.017s-19.322 10.17-23.39 14.238c-6.102 6.102-9.492 13.729-10.17 22.882s3.051 18.475 11.187 27.967c16.949 18.305 34.746 39.831 53.391 64.577s35.424 46.95 50.34 66.611c-11.526-1.356-24.407-2.542-38.645-3.559s-27.628-1.017-40.17 0c-12.543 1.017-23.221 3.729-32.034 8.136s-13.56 11.695-14.238 21.865c-0.678 7.458 1.186 13.56 5.593 18.305s11.356 9.831 20.848 15.254c8.814 4.746 19.153 11.865 31.017 21.356s23.051 19.831 33.56 31.017c10.509 11.187 19.831 22.712 27.967 34.577s13.221 22.882 15.254 33.051c-6.78 4.068-14.916 6.271-24.407 6.61s-19.492-0.339-30-2.034-21.017-3.898-31.526-6.61c-10.509-2.712-20.509-5.424-30-8.136-15.593-4.068-28.475-3.22-38.645 2.542s-14.577 13.39-13.221 22.882c0 6.102 3.729 12.034 11.187 17.797s16.271 11.356 26.441 16.78c8.814 4.746 19.831 8.814 33.051 12.204s27.119 5.593 41.696 6.61c14.577 1.017 29.153 0.847 43.73-0.508s27.967-4.407 40.17-9.153c22.373-8.814 35.424-19.661 39.153-32.543s3.22-26.102-1.525-39.662zM2830.216 542.027c-8.136 2.712-14.746 7.288-19.831 13.729s-7.966 12.373-8.644 17.797c-2.034 20.339-3.559 42.713-4.576 67.12s-1.186 49.153-0.508 74.239c0.678 25.085 2.034 48.814 4.068 71.188s5.085 41.696 9.153 57.967c2.034 8.136 5.424 15.254 10.17 21.356s9.831 8.814 15.254 8.136c9.492-0.678 17.966-4.915 25.424-12.712s10.509-16.78 9.153-26.95c-2.034-16.949-3.729-36.272-5.085-57.967s-2.373-44.408-3.051-68.137c-0.678-23.729-1.017-47.289-1.017-70.679s0.678-45.255 2.034-65.594c0.678-7.458-1.525-15.085-6.61-22.882s-13.729-10-25.933-6.61zM3108.865 731.183c16.271-16.271 24.407-32.882 24.407-49.831s-3.729-31.017-11.187-42.204c-7.458-11.187-15.254-21.526-23.39-31.017 8.136 0 16.271-1.017 24.407-3.051s15.763-5.085 22.882-9.153c7.119-4.068 12.882-8.814 17.288-14.238s6.61-11.526 6.61-18.305c0-10.17-2.542-21.187-7.627-33.051s-11.017-24.238-17.797-37.119c-6.78-12.882-13.56-26.102-20.339-39.662s-11.526-26.441-14.238-38.645c34.577 16.271 68.645 35.424 102.205 57.459s64.916 42.882 94.069 62.543c3.39 2.034 5.932 1.695 7.627-1.017s2.542-6.102 2.542-10.17c0-7.458-2.034-16.441-6.102-26.95s-8.814-18.475-14.238-23.899c-23.729-27.119-51.526-51.187-83.391-72.205s-64.069-39.323-96.612-54.916c-16.949-8.136-32.204-12.373-45.763-12.712s-24.068 2.203-31.526 7.627c-5.424 3.39-9.322 9.492-11.695 18.305s-2.881 17.288-1.525 25.424c2.034 10.763 5.763 22.966 11.187 36.611 5.424 13.56 11.695 27.458 18.814 41.696s14.746 27.967 22.882 41.187c8.136 13.221 15.254 24.916 21.356 35.085-10.17 1.356-21.187 1.356-33.051 0s-22.543-2.712-32.034-4.068c-9.492-1.356-17.288 0.169-23.39 4.576s-10.339 10-12.712 16.78c-2.373 6.78-3.051 13.899-2.034 21.356s3.559 13.221 7.627 17.288c6.102 6.102 13.221 13.051 21.356 20.848s15.593 15.593 22.373 23.39c6.78 7.797 12.034 15.593 15.763 23.39s3.898 15.424 0.508 22.882c-3.39 6.78-11.356 10-23.899 9.661s-23.56-1.525-33.051-3.559c-7.458-1.356-15.424-0.847-23.899 1.525s-13.39 8.305-14.746 17.797c-2.034 10.17 0.508 17.966 7.627 23.39s15.424 9.831 24.916 13.221c17.627 6.102 37.119 7.797 58.476 5.085s37.797-9.831 49.323-21.356zM3491.244 335.583c-4.746-31.187-17.119-58.306-37.119-81.357s-47.289-41.357-81.866-54.916c-10.848-4.068-21.187-5.593-31.017-4.576s-18.475 3.22-25.933 6.61c-12.882 6.78-22.204 16.949-27.967 30.509s-6.949 28.136-3.559 43.73c12.882 58.984 37.289 108.815 73.222 149.494 13.56 13.56 26.441 15.932 38.645 7.119 2.034-2.034 4.576-4.746 7.627-8.136s4.915-7.797 5.593-13.221c20.339-3.39 36.272-8.305 47.797-14.746s19.831-13.221 24.916-20.339 8.136-14.407 9.153-21.865 1.186-13.56 0.508-18.305zM3357.005 259.31c15.593 7.458 30 17.797 43.221 31.017s23.899 27.628 32.034 43.221c3.39 7.458 1.186 14.238-6.61 20.339s-19.153 11.187-34.068 15.254c-11.526-21.695-20.17-42.035-25.933-61.018s-8.644-35.255-8.644-48.814zM3453.616 731.183c-2.034-38.645-4.407-76.611-7.119-113.9s-3.051-76.272-1.017-116.951c-0.678-5.424-4.407-11.017-11.187-16.78s-13.221-8.644-19.322-8.644c-4.746 0-8.644 2.373-11.695 7.119s-5.593 10.339-7.627 16.78-3.559 12.882-4.576 19.322c-1.017 6.441-1.864 11.356-2.542 14.746-2.034 15.593-3.22 32.882-3.559 51.865s0 38.136 1.017 57.459c1.017 19.322 2.373 38.136 4.068 56.442s3.22 34.238 4.576 47.797c1.356 5.424 3.898 10.17 7.627 14.238s10.678 5.424 20.848 4.068c12.204-1.356 20.339-5.593 24.407-12.712s6.102-14.068 6.102-20.848z" />
<glyph unicode="&#xe926;" glyph-name="file-text2" d="M917.806 730.924c-22.212 30.292-53.174 65.7-87.178 99.704s-69.412 64.964-99.704 87.178c-51.574 37.82-76.592 42.194-90.924 42.194h-496c-44.112 0-80-35.888-80-80v-864c0-44.112 35.888-80 80-80h736c44.112 0 80 35.888 80 80v624c0 14.332-4.372 39.35-42.194 90.924zM785.374 785.374c30.7-30.7 54.8-58.398 72.58-81.374h-153.954v153.946c22.984-17.78 50.678-41.878 81.374-72.572zM896 16c0-8.672-7.328-16-16-16h-736c-8.672 0-16 7.328-16 16v864c0 8.672 7.328 16 16 16 0 0 495.956 0.002 496 0v-224c0-17.672 14.326-32 32-32h224v-624zM736 128h-448c-17.672 0-32 14.326-32 32s14.328 32 32 32h448c17.674 0 32-14.326 32-32s-14.326-32-32-32zM736 256h-448c-17.672 0-32 14.326-32 32s14.328 32 32 32h448c17.674 0 32-14.326 32-32s-14.326-32-32-32zM736 384h-448c-17.672 0-32 14.326-32 32s14.328 32 32 32h448c17.674 0 32-14.326 32-32s-14.326-32-32-32z" />
<glyph unicode="&#xe927;" glyph-name="healtxt3" horiz-adv-x="2440" d="M194.495 584.062c10.17-1.356 19.492-4.746 27.967-10.17s13.39-18.644 14.746-39.662c0.678-14.238 2.203-31.187 4.576-50.848s4.915-39.831 7.627-60.509c2.712-20.678 5.593-40.848 8.644-60.509s5.593-36.611 7.627-50.848c0.678-9.492-0.678-17.797-4.068-24.916s-6.78-11.356-10.17-12.712c-2.034-1.356-6.102-2.203-12.204-2.542s-11.865 5.593-17.288 17.797c-8.814 21.102-16.271 43.645-22.373 67.628-6.102 24.068-11.187 47.797-15.254 71.188s-7.458 45.424-10.17 66.103c-2.712 20.678-4.746 38.136-6.102 52.374-5.424-8.136-11.695-18.305-18.814-30.509-7.119-12.119-14.238-25.085-21.356-38.56-7.119-13.56-13.899-27.119-20.339-40.679s-12.034-26.441-16.78-38.645c-2.034-6.102-6.271-9.492-12.712-10.17-6.441-0.763-12.373 2.627-17.797 10.17-8.136 12.882-12.204 26.78-12.204 41.611 0 7.458 2.881 18.475 8.644 33.051s13.56 31.017 23.39 49.323c9.831 18.305 20.678 37.289 32.543 56.95s23.729 37.967 35.594 54.916c11.865 16.949 23.051 31.526 33.56 43.73s18.814 20 24.916 23.39c2.712 2.034 8.305 3.22 16.78 3.559s16.78-2.203 24.916-7.627c4.746-4.068 6.949-10.17 6.61-18.305s-2.881-15.593-7.627-22.373c-7.458-9.492-16.61-21.187-27.458-35.085s-19.322-26.272-25.424-37.119zM425.346 352.278c-2.712-15.593-5.424-32.204-8.136-49.831s-4.407-33.899-5.085-48.814c0-6.102 3.051-9.153 9.153-9.153 25.763 1.271 52.204 6.187 79.323 14.661s52.882 17.119 77.289 25.933c16.949 6.102 28.136 5.763 33.56-1.017 0.678-0.593 1.186-2.881 1.525-6.61s-0.339-8.051-2.034-13.136-4.237-10.339-7.627-15.763-8.475-10.17-15.254-14.238c-24.407-13.56-51.526-25.763-81.357-36.611s-57.628-18.644-83.391-23.39c-8.814-2.034-17.627-2.542-26.441-1.61-8.814 1.102-16.61 4.068-23.39 9.153s-12.373 12.204-16.78 21.356c-4.407 9.237-6.61 21.187-6.61 36.187 0.678 21.695 2.542 44.238 5.593 67.628 3.051 23.305 6.949 43.56 11.695 60.425 4.068 12.882 12.882 17.966 26.441 15.254 8.136-1.356 15.763-4.915 22.882-10.678s10-12.288 8.644-19.746zM533.144 764.065c-3.39-52.882-5.085-105.595-5.085-158.138s2.373-104.917 7.119-157.121c0.678-10.848-0.339-22.458-3.051-35.001s-8.814-19.492-18.305-20.848c-3.39 0-6.949 1.695-10.678 5.085s-7.288 7.627-10.678 12.712-6.61 10.509-9.661 16.187c-3.051 5.763-4.915 11.356-5.593 16.865-8.814 52.882-13.729 108.561-14.746 167.206s2.203 114.748 9.661 168.308c1.356 6.78 6.102 11.865 14.238 15.254s15.593 4.407 22.373 3.051c7.458-1.356 13.39-5.424 17.797-12.204s6.61-13.899 6.61-21.356zM788.403 859.659c0.678-11.526 1.525-25.594 2.542-42.204s1.525-33.051 1.525-49.323c0-16.271-0.508-31.526-1.525-45.763s-3.305-24.746-6.695-31.441c15.593-1.356 25.424-8.644 29.492-21.865s2.712-26.272-4.068-39.153c-11.526-23.729-23.39-47.119-35.594-70.171s-20.933-40.424-26.356-51.865c19.661 3.39 34.916 1.864 45.763-4.576s17.966-15.763 21.356-27.967c7.458-27.797 13.729-56.611 18.814-86.442 5.085-29.916 8.644-55.594 10.678-77.289 0.678-8.814-1.186-16.865-5.678-23.983-4.322-7.119-10.593-10.678-18.729-10.678-6.102 0-13.39 3.22-21.865 9.661s-13.051 13.729-13.729 21.865c-2.119 12.882-4.068 26.95-6.102 42.289s-4.492 30.424-7.119 45.763c-2.797 15.17-5.424 29.831-8.22 43.73-2.627 13.814-5.678 26.187-9.068 37.119-3.39 7.458-7.119 11.187-11.187 11.187-3.39 0-7.458-4.068-12.204-12.204l-26.441-51.865c-3.39-7.458-8.814-12.204-16.271-14.238-7.542-2.119-12.966-2.458-16.271-1.102-4.746 1.441-8.305 4.068-10.763 8.22-2.288 4.068-3.898 8.22-4.492 12.712-0.678 4.407-0.847 8.644-0.508 12.712s0.847 7.119 1.525 9.153c11.526 30.509 24.746 59.662 39.662 87.459 14.831 27.712 29.831 57.967 44.662 90.425-13.56 0-29.153-2.373-46.78-7.119-17.543-4.746-31.441-10.509-41.611-17.288-4.068-2.034-8.983-3.559-14.746-4.492-5.848-1.102-11.61-0.763-17.288 0.932s-10.509 4.831-14.238 9.153c-3.729 4.492-5.593 10.678-5.593 18.814 0 5.424 2.542 10.678 7.627 15.763s10.339 9.322 15.763 12.712c4.746 3.39 16.78 8.814 36.102 16.271 19.238 7.458 45.255 12.882 77.798 16.356-0.678 12.882-1.525 26.95-2.542 42.204s-1.695 30.678-2.034 46.272c-0.339 15.593 0 30.678 1.017 45.255s3.559 27.967 7.627 40.17c3.39 9.492 7.119 15.932 11.187 19.322s8.814 4.661 14.238 3.983c6.102-0.593 10.763-2.966 14.153-7.119 3.475-3.983 5.424-11.102 6.187-21.356zM1081.289 703.047c1.356 10.17 4.407 19.153 9.153 26.95s11.865 11.695 21.356 11.695c6.102 0 10.848-1.525 14.238-4.576s6.102-6.78 8.136-11.187c2.034-4.407 3.559-8.983 4.576-13.729s1.525-9.153 1.525-13.221c0.678-40.001-0.678-79.832-4.068-119.494s-6.78-75.764-10.17-108.307c-0.678-6.102-2.373-12.204-5.085-18.305s-6.102-11.526-10.17-16.271c-4.068-4.746-8.136-8.644-12.204-11.695s-7.458-4.237-10.17-3.559c-6.102 1.356-11.017 6.441-14.746 15.254s-5.254 18.983-4.576 30.509c2.034 21.017 3.898 41.865 5.593 62.543s3.22 41.526 4.576 62.543c-13.56-5.424-28.136-11.526-43.73-18.305s-31.526-14.068-47.797-21.865c-16.356-7.797-32.289-15.763-47.797-23.899-15.678-8.136-29.916-16.271-42.713-24.407-7.458-5.424-16.102-7.458-25.933-6.102s-15.763 6.102-17.797 14.238c-2.034 5.424-2.034 12.204 0 20.339s8.814 15.932 20.339 23.39c27.119 17.627 59.493 34.238 97.12 49.831s74.069 29.831 109.324 42.713c0.678 9.492 1.017 18.644 1.017 27.458s0 17.966 0 27.458zM1117.815 304.481c-0.678-27.119-6.78-51.187-18.305-72.205s-27.119-39.323-46.78-54.916c-16.271-12.882-32.543-21.017-48.814-24.407s-31.187-2.034-44.747 4.068c-12.204 5.424-21.526 14.746-27.967 27.967s-7.966 29.662-4.576 49.323c4.068 25.085 12.034 49.323 23.899 72.713s26.526 43.56 44.238 60.509c7.458 7.458 15.085 13.051 22.882 16.78s16.102 2.881 24.916-2.542c6.102-3.39 9.322-7.288 9.661-11.695s-1.186-9.322-4.576-14.746c8.136 1.356 16.441 1.356 24.916 0 8.475-1.441 16.102-4.237 22.882-8.644s12.204-10 16.271-16.78 6.102-15.339 6.102-25.424zM986.711 212.954c18.305 9.492 34.577 21.695 48.814 36.611s24.068 29.492 29.492 43.73c4.068 12.882 1.864 22.034-6.61 27.458s-17.119 9.831-25.933 13.221c-11.526-16.271-21.695-34.746-30.509-55.425-8.814-20.763-13.899-42.543-15.254-65.594zM1429.091 580.078c-6.102-19.661-12.373-39.492-18.814-59.493s-12.712-39.831-18.814-59.493c21.017-0.678 39.153-6.102 54.408-16.271s24.916-22.034 28.984-35.594c4.068-11.526 5.254-23.56 3.559-36.102s-5.424-24.916-11.187-37.119c-5.763-12.204-13.051-23.899-21.865-35.085s-18.644-20.848-29.492-28.984c-6.78-5.424-17.458-11.017-32.034-16.78s-27.967-7.627-40.17-5.593c-19.661 3.39-32.882 14.746-39.662 34.068s-8.475 39.831-5.085 61.526c3.39 23.051 7.288 43.56 11.695 61.526s9.153 35.424 14.238 52.374c5.085 16.949 10.678 34.238 16.78 51.865s12.882 37.967 20.339 61.018c-20.339-2.712-40.001-7.797-58.984-15.254s-35.255-15.254-48.814-23.39c-8.814-5.424-18.475-6.441-28.984-3.051s-15.763 11.865-15.763 25.424c-1.356 10.848 4.407 21.356 17.288 31.526s28.814 18.814 47.797 25.933c18.983 7.119 38.645 12.458 58.984 16.271 20.339 3.729 37.289 4.915 50.848 3.559 18.983-2.034 31.695-8.305 38.136-18.814s8.644-21.865 6.61-34.068zM1433.159 712.284c2.034-5.424 3.898-12.373 5.593-20.848s2.288-16.271 1.949-23.39-2.542-12.882-6.61-17.288c-4.068-4.407-11.187-5.254-21.356-2.542-6.102 2.034-10.593 5.593-13.221 10.678-2.712 5.085-5.763 10.339-9.153 15.763-13.56 26.441-29.492 52.374-47.797 77.798s-37.289 48.306-56.95 68.645c-10.848 9.492-17.627 19.153-20.339 28.984s0.678 18.475 10.17 25.933c8.814 5.424 17.797 6.61 26.95 3.559s17.458-7.966 24.916-14.746c12.204-11.526 24.068-24.068 35.594-37.628s21.865-27.289 31.017-41.187 17.119-27.119 23.899-39.662 11.949-23.983 15.339-34.068zM1359.938 314.566c7.458 4.068 15.085 8.814 22.882 14.238 7.797 5.339 14.746 11.526 20.848 18.305s10.509 14.068 13.221 21.865c2.712 7.797 2.712 15.763 0 23.899s-7.288 14.238-13.729 18.305-13.729 7.458-21.865 10.17c-4.746-17.627-8.983-35.424-12.712-53.391-3.814-17.966-6.61-35.763-8.644-53.391zM1668.078 581.011c30.509 15.593 60.17 24.068 88.985 25.424s54.747-1.695 77.798-9.153c6.102-2.034 10.339-4.746 12.712-8.136s3.729-6.61 4.068-9.661c0.339-3.051 0.169-5.763-0.508-8.136s-1.017-3.898-1.017-4.576c-7.458-12.204-16.271-18.305-26.441-18.305-14.238 0-26.611-0.169-37.119-0.508s-20-1.017-28.475-2.034c-8.475-1.017-16.61-2.542-24.407-4.576s-16.441-4.407-25.933-7.119c-6.102-2.034-11.017-2.542-14.746-1.525s-6.949 2.373-9.661 4.068c-2.712 1.695-4.915 3.22-6.61 4.576s-3.559 1.695-5.593 1.017c-1.356-0.678-2.034-4.407-2.034-11.187 0-31.865 1.186-61.357 3.559-88.476s4.576-53.56 6.61-79.323c0.678-8.814-1.525-17.966-6.61-27.458s-12.373-13.56-21.865-12.204c-6.78 1.356-13.899 6.102-21.356 14.238s-11.865 16.61-13.221 25.424c-10.17 65.086-14.746 130.85-13.729 197.291s5.254 128.477 12.712 186.105c0.678 6.78 3.22 11.695 7.627 14.746s9.153 4.746 14.238 5.085c5.085 0.339 10.339-0.339 15.763-2.034 5.339-1.695 9.831-3.898 13.221-6.61 2.712-2.034 6.102-5.932 10.17-11.695s5.424-11.356 4.068-16.78c-4.068-23.051-7.119-47.628-9.153-73.73-2.034-26.017-3.051-50.933-3.051-74.747zM2131.73 555.671c-4.068-14.238-8.136-30.339-12.204-48.306s-7.627-36.441-10.678-55.425c-3.051-18.983-5.085-37.458-6.102-55.425s-0.508-34.407 1.525-49.323c0-13.56-3.729-23.221-11.187-28.984s-13.899-7.966-19.322-6.61c-9.492 2.034-16.949 7.288-22.373 15.763s-9.492 17.119-12.204 25.933c-2.712 9.492-3.898 23.051-3.559 40.679s1.525 36.78 3.559 57.459 4.746 41.526 8.136 62.543c3.39 21.017 7.119 40.001 11.187 56.95-8.136 0-17.627-1.525-28.475-4.576s-22.204-6.949-34.068-11.695c-11.865-4.746-23.729-10-35.594-15.763s-22.882-11.017-33.051-15.763c-7.458-3.475-16.78-3.22-27.967 0.508s-19.153 9.322-23.899 16.78-3.729 14.746 3.051 21.865 13.899 13.39 21.356 18.814c9.492 6.78 21.187 13.39 35.085 19.831s28.306 12.373 43.221 17.797c14.916 5.424 29.831 9.661 44.747 12.712s28.136 4.576 39.662 4.576c26.441-1.356 45.933-9.492 58.476-24.407 12.543-15 16.102-33.56 10.678-55.933zM2348.344 393.889c0-11.526-2.034-19.153-6.102-22.882s-10.17-5.593-18.305-5.593c-2.712 0-6.102 0.678-10.17 2.034s-8.136 3.559-12.204 6.61c-4.068 3.051-7.627 6.61-10.678 10.678s-4.915 8.814-5.593 14.238c-2.712 33.221-4.407 64.069-5.085 92.544s-1.017 55.594-1.017 81.357c0 25.763 0.678 50.34 2.034 73.73s2.712 46.611 4.068 69.662c0 7.458 3.051 13.729 9.153 18.814s12.882 7.627 20.339 7.627c10.848 0 19.492-5.424 25.933-16.271s9.322-21.017 8.644-30.509c-1.356-28.475-2.542-54.916-3.559-79.323s-1.525-48.475-1.525-72.205c0-23.729 0.339-47.713 1.017-71.696 0.678-24.068 1.695-50.255 3.051-78.815z" />
<glyph unicode="&#xe928;" glyph-name="point" horiz-adv-x="1039" d="M519.307 930.728c-266.61 0-482.75-216.14-482.75-482.75s216.14-482.75 482.75-482.75 482.75 216.14 482.75 482.75-216.096 482.75-482.75 482.75zM519.307 8.632c-242.648 0-439.39 196.699-439.39 439.39s196.742 439.346 439.39 439.346 439.39-196.699 439.39-439.39-196.699-439.346-439.39-439.346zM420.563 664.864c27.912 4.652 64.425 8.646 110.945 8.646 57.14 0 98.964-13.298 125.559-37.216 24.576-21.241 39.191-53.805 39.191-93.653 0-40.507-11.937-72.412-34.539-95.672-30.545-32.564-80.4-49.153-136.838-49.153-17.291 0-33.222 0.658-46.52 3.994v-179.363h-57.798v442.418zM478.361 448.987c12.639-3.335 28.57-4.652 47.836-4.652 69.735 0 112.261 33.88 112.261 95.672 0 59.115-41.868 87.685-105.634 87.685-25.235 0-44.501-1.975-54.463-4.652v-174.053z" />
<glyph unicode="&#xe929;" glyph-name="kas" horiz-adv-x="1039" d="M661.982 738.286h-285.349c-19.222 0-34.714-15.492-34.714-34.539v-283.023c0-19.091 15.492-34.539 34.714-34.539h131.615c-0.965-33.617-15.009-70.218-35.372-102.694-22.909-36.601-71.798-77.152-72.193-77.459-3.862-3.73-6.671-7.943-6.715-13.824-0.044-4.608 2.282-8.075 4.871-11.674l91.766-102.913c0 0 4.476-4.74 8.207-5.53 4.125-1.097 8.821-1.097 12.113 1.404 158.869 122.092 181.777 275.299 185.815 358.156 0 0.614 0 272.095 0 272.095-0.044 19.091-15.624 34.539-34.758 34.539z" />
<glyph unicode="&#xe92a;" glyph-name="share2" d="M788.286 258.033c-46.964 0-87.581-24.762-107.314-60.844l-356.067 188.842c6.273 13.369 9.748 28.109 9.748 43.58 0 7.882-0.896 15.527-2.597 22.915l368.887 220.078c21.891-21.324 52.907-34.619 87.325-34.619 66.294 0 120.061 49.378 120.061 110.295s-53.748 110.295-120.061 110.295c-66.331 0-120.061-49.378-120.061-110.295 0-17.191 4.279-33.467 11.924-47.988l-361.499-215.652c-20.739 33.046-59.564 55.285-104.022 55.285-66.331 0-120.097-49.396-120.097-110.313s53.748-110.295 120.097-110.295c36.283 0 68.799 14.813 90.818 38.204l364.151-193.158c-0.896-5.413-1.353-10.991-1.353-16.66 0-60.881 53.73-110.295 120.061-110.295 66.294 0 120.061 49.432 120.061 110.295-0.018 60.954-53.767 110.332-120.061 110.332z" />
<glyph unicode="&#xe92b;" glyph-name="home" d="M1024 369.556l-512 397.426-512-397.428v162.038l512 397.426 512-397.428zM896 384v-384h-256v256h-256v-256h-256v384l384 288z" />
<glyph unicode="&#xe92c;" glyph-name="date" horiz-adv-x="1039" d="M519.307 930.728c-266.61 0-482.75-216.14-482.75-482.75s216.14-482.75 482.75-482.75 482.75 216.14 482.75 482.75-216.096 482.75-482.75 482.75zM519.307 8.632c-242.648 0-439.39 196.699-439.39 439.39s196.742 439.346 439.39 439.346 439.39-196.699 439.39-439.39-196.699-439.346-439.39-439.346zM372.332 673.027h155.358c27.21 0 50.645-1.36 70.306-4.125s38.444-9.523 56.35-20.275c17.906-10.752 33.573-25.542 47.002-44.369 13.385-18.827 23.918-40.463 31.598-64.908s11.542-54.068 11.542-88.87c0-66.312-15.755-120.819-47.309-163.521-31.51-42.658-85.754-63.986-162.731-63.986h-162.116v450.054zM431.885 276.339h96.418c19.661 0 37.216 1.229 52.664 3.686s31.115 9.128 46.958 19.968c15.843 10.884 29.009 28.658 39.454 53.41s15.667 57.535 15.667 98.262c0 22.514-1.975 43.579-5.969 63.109s-11.367 37.347-22.119 53.41-23.084 27.824-36.996 35.329c-13.912 7.461-27.473 12.025-40.683 13.649-13.21 1.668-30.15 2.458-50.82 2.458h-94.575v-343.279z" />
<glyph unicode="&#xe92d;" glyph-name="user2" d="M681.374 680.87c0-93.548-75.836-169.383-169.383-169.383s-169.383 75.836-169.383 169.383c0 93.548 75.836 169.383 169.383 169.383s169.383-75.836 169.383-169.383zM925.007 38.742c0 0.329 0.073 0.658 0.073 0.988 0 210.824-184.947 381.744-413.089 381.744-228.125 0-413.071-170.92-413.071-381.744 0-0.329 0.055-0.658 0.055-0.988h826.032z" />
<glyph unicode="&#xe92e;" glyph-name="hback" horiz-adv-x="1039" d="M435.879 192.911c-103.703 0-188.097 84.393-188.097 188.141s84.393 188.141 188.097 188.141h317.386l-136.004-136.048 31.028-31.028 164.837 164.881 0.263-0.263 21.329 21.329-13.078 13.078 0.044 0.044-173.439 173.483-30.984-31.028 130.562-130.606h-311.944c-127.929 0-231.983-104.098-231.983-232.027s104.098-232.027 231.983-232.027h394.407c1.536 0 2.94 0.439 4.476 0.439v43.886c-1.536-0.044-2.94-0.439-4.476-0.439h-394.407z" />
<glyph unicode="&#xe92f;" glyph-name="image" d="M959.884 832c0.040-0.034 0.082-0.076 0.116-0.116v-767.77c-0.034-0.040-0.076-0.082-0.116-0.116h-895.77c-0.040 0.034-0.082 0.076-0.114 0.116v767.772c0.034 0.040 0.076 0.082 0.114 0.114h895.77zM960 896h-896c-35.2 0-64-28.8-64-64v-768c0-35.2 28.8-64 64-64h896c35.2 0 64 28.8 64 64v768c0 35.2-28.8 64-64 64v0zM832 672c0-53.020-42.98-96-96-96s-96 42.98-96 96 42.98 96 96 96 96-42.98 96-96zM896 128h-768v128l224 384 256-320h64l224 192z" />
<glyph unicode="&#xe930;" glyph-name="n-prev" d="M322.472 540.345l13.094-12.765-111.319-114.007h596.043v-18.288h-639.751z" />
<glyph unicode="&#xe931;" glyph-name="n-next" d="M678.357 540.345l-13.094-12.765 111.337-114.007h-596.043v-18.288h639.733z" />
<glyph unicode="&#xe93b;" glyph-name="coin-dollar" d="M480 896c-265.096 0-480-214.904-480-480 0-265.098 214.904-480 480-480 265.098 0 480 214.902 480 480 0 265.096-214.902 480-480 480zM480 32c-212.078 0-384 171.922-384 384s171.922 384 384 384c212.078 0 384-171.922 384-384s-171.922-384-384-384zM512 448v128h128v64h-128v64h-64v-64h-128v-256h128v-128h-128v-64h128v-64h64v64h128.002l-0.002 256h-128zM448 448h-64v128h64v-128zM576.002 256h-64.002v128h64.002v-128z" />
<glyph unicode="&#xe93f;" glyph-name="credit-card" d="M928 832h-832c-52.8 0-96-43.2-96-96v-576c0-52.8 43.2-96 96-96h832c52.8 0 96 43.2 96 96v576c0 52.8-43.2 96-96 96zM96 768h832c17.346 0 32-14.654 32-32v-96h-896v96c0 17.346 14.654 32 32 32zM928 128h-832c-17.346 0-32 14.654-32 32v288h896v-288c0-17.346-14.654-32-32-32zM128 320h64v-128h-64zM256 320h64v-128h-64zM384 320h64v-128h-64z" />
<glyph unicode="&#xe94d;" glyph-name="history" horiz-adv-x="1088" d="M640 896c247.424 0 448-200.576 448-448s-200.576-448-448-448v96c94.024 0 182.418 36.614 248.902 103.098s103.098 154.878 103.098 248.902c0 94.022-36.614 182.418-103.098 248.902s-154.878 103.098-248.902 103.098c-94.022 0-182.418-36.614-248.902-103.098-51.14-51.138-84.582-115.246-97.306-184.902h186.208l-224-256-224 256h164.57c31.060 217.102 217.738 384 443.43 384zM832 512v-128h-256v320h128v-192z" />
<glyph unicode="&#xe94e;" glyph-name="clock" d="M658.744 210.744l-210.744 210.746v282.51h128v-229.49l173.256-173.254zM512 960c-282.77 0-512-229.23-512-512s229.23-512 512-512 512 229.23 512 512-229.23 512-512 512zM512 64c-212.078 0-384 171.922-384 384s171.922 384 384 384c212.078 0 384-171.922 384-384s-171.922-384-384-384z" />
<glyph unicode="&#xe95b;" glyph-name="tv" d="M981.188 671.892c-88.808 12.768-183.382 22.016-282.076 27.22l164.888 164.888-64 64-224.558-224.556c-21.006 0.368-42.156 0.556-63.442 0.556v0l-256 256-64-64 194.196-194.196c-120.922-4.242-236.338-14.524-343.386-29.912-27.532-107.726-42.81-226.752-42.81-351.892s15.278-244.166 42.804-351.89c143.642-20.652 302.34-32.11 469.196-32.11s325.55 11.458 469.188 32.11c27.534 107.724 42.812 226.75 42.812 351.89s-15.278 244.166-42.812 351.892zM863.892 85.406c-107.73-13.766-226.75-21.406-351.892-21.406s-244.166 7.64-351.892 21.406c-20.648 71.816-32.108 151.166-32.108 234.594 0 83.43 11.458 162.78 32.108 234.596 107.726 13.766 226.75 21.404 351.892 21.404 125.136 0 244.162-7.638 351.886-21.404 20.656-71.816 32.114-151.166 32.114-234.596 0-83.428-11.458-162.778-32.108-234.594z" />
<glyph unicode="&#xe96b;" glyph-name="bubble" d="M512 896c282.77 0 512-186.25 512-416 0-229.752-229.23-416-512-416-27.156 0-53.81 1.734-79.824 5.044-109.978-109.978-241.25-129.7-368.176-132.596v26.916c68.536 33.578 128 94.74 128 164.636 0 9.754-0.758 19.33-2.164 28.696-115.796 76.264-189.836 192.754-189.836 323.304 0 229.75 229.23 416 512 416z" />
<glyph unicode="&#xe96e;" glyph-name="bubble2" d="M512 768c-54.932 0-107.988-8.662-157.694-25.742-46.712-16.054-88.306-38.744-123.628-67.444-66.214-53.798-102.678-122.984-102.678-194.814 0-40.298 11.188-79.378 33.252-116.152 22.752-37.92 56.982-72.586 98.988-100.252 30.356-19.992 50.78-51.948 56.176-87.894 1.8-11.984 2.928-24.088 3.37-36.124 7.47 6.194 14.75 12.846 21.88 19.976 24.154 24.152 56.78 37.49 90.502 37.49 5.368 0 10.762-0.336 16.156-1.024 20.974-2.666 42.398-4.020 63.676-4.020 54.934 0 107.988 8.66 157.694 25.742 46.712 16.054 88.306 38.744 123.628 67.444 66.214 53.796 102.678 122.984 102.678 194.814s-36.464 141.016-102.678 194.814c-35.322 28.698-76.916 51.39-123.628 67.444-49.706 17.080-102.76 25.742-157.694 25.742zM512 896v0c282.77 0 512-186.25 512-416 0-229.752-229.23-416-512-416-27.156 0-53.81 1.734-79.824 5.044-109.978-109.978-241.25-129.7-368.176-132.596v26.916c68.536 33.578 128 94.74 128 164.636 0 9.754-0.758 19.33-2.164 28.696-115.796 76.264-189.836 192.754-189.836 323.304 0 229.75 229.23 416 512 416z" />
<glyph unicode="&#xe96f;" glyph-name="bubbles3" horiz-adv-x="1152" d="M1088 58.834c0-45.5 26.028-84.908 64-104.184v-15.938c-10.626-1.454-21.472-2.224-32.5-2.224-68.008 0-129.348 28.528-172.722 74.264-26.222-6.982-54.002-10.752-82.778-10.752-159.058 0-288 114.616-288 256s128.942 256 288 256c159.058 0 288-114.616 288-256 0-55.348-19.764-106.592-53.356-148.466-6.824-14.824-10.644-31.312-10.644-48.7zM230.678 738.814c-66.214-53.798-102.678-122.984-102.678-194.814 0-40.298 11.188-79.378 33.252-116.15 22.752-37.92 56.982-72.586 98.988-100.252 30.356-19.992 50.78-51.948 56.176-87.894 1.8-11.984 2.928-24.088 3.37-36.124 7.47 6.194 14.75 12.846 21.88 19.976 24.154 24.152 56.78 37.49 90.502 37.49 5.368 0 10.762-0.336 16.156-1.024 20.948-2.662 42.344-4.016 63.594-4.020v-128c-27.128 0.002-53.754 1.738-79.742 5.042-109.978-109.978-241.25-129.7-368.176-132.596v26.916c68.536 33.578 128 94.74 128 164.636 0 9.754-0.758 19.33-2.164 28.696-115.796 76.264-189.836 192.754-189.836 323.304 0 229.75 229.23 416 512 416 278.458 0 504.992-180.614 511.836-405.52-41.096 18.316-85.84 29.422-132.262 32.578-11.53 56.068-45.402 108.816-98.252 151.756-35.322 28.698-76.916 51.39-123.628 67.444-49.706 17.080-102.76 25.742-157.694 25.742-54.932 0-107.988-8.662-157.694-25.742-46.712-16.054-88.306-38.744-123.628-67.444z" />
<glyph unicode="&#xe971;" glyph-name="user" d="M576 253.388v52.78c70.498 39.728 128 138.772 128 237.832 0 159.058 0 288-192 288s-192-128.942-192-288c0-99.060 57.502-198.104 128-237.832v-52.78c-217.102-17.748-384-124.42-384-253.388h896c0 128.968-166.898 235.64-384 253.388z" />
<glyph unicode="&#xe982;" glyph-name="spinner9" d="M512 960c-278.748 0-505.458-222.762-511.848-499.974 5.92 241.864 189.832 435.974 415.848 435.974 229.75 0 416-200.576 416-448 0-53.020 42.98-96 96-96s96 42.98 96 96c0 282.77-229.23 512-512 512zM512-64c278.748 0 505.458 222.762 511.848 499.974-5.92-241.864-189.832-435.974-415.848-435.974-229.75 0-416 200.576-416 448 0 53.020-42.98 96-96 96s-96-42.98-96-96c0-282.77 229.23-512 512-512z" />
<glyph unicode="&#xe994;" glyph-name="cog" d="M933.79 349.75c-53.726 93.054-21.416 212.304 72.152 266.488l-100.626 174.292c-28.75-16.854-62.176-26.518-97.846-26.518-107.536 0-194.708 87.746-194.708 195.99h-201.258c0.266-33.41-8.074-67.282-25.958-98.252-53.724-93.056-173.156-124.702-266.862-70.758l-100.624-174.292c28.97-16.472 54.050-40.588 71.886-71.478 53.638-92.908 21.512-211.92-71.708-266.224l100.626-174.292c28.65 16.696 61.916 26.254 97.4 26.254 107.196 0 194.144-87.192 194.7-194.958h201.254c-0.086 33.074 8.272 66.57 25.966 97.218 53.636 92.906 172.776 124.594 266.414 71.012l100.626 174.29c-28.78 16.466-53.692 40.498-71.434 71.228zM512 240.668c-114.508 0-207.336 92.824-207.336 207.334 0 114.508 92.826 207.334 207.336 207.334 114.508 0 207.332-92.826 207.332-207.334-0.002-114.51-92.824-207.334-207.332-207.334z" />
<glyph unicode="&#xe9b6;" glyph-name="switch" d="M640 813.412v-135.958c36.206-15.804 69.5-38.408 98.274-67.18 60.442-60.44 93.726-140.8 93.726-226.274s-33.286-165.834-93.726-226.274c-60.44-60.44-140.798-93.726-226.274-93.726s-165.834 33.286-226.274 93.726c-60.44 60.44-93.726 140.8-93.726 226.274s33.286 165.834 93.726 226.274c28.774 28.774 62.068 51.378 98.274 67.182v135.956c-185.048-55.080-320-226.472-320-429.412 0-247.424 200.578-448 448-448 247.424 0 448 200.576 448 448 0 202.94-134.95 374.332-320 429.412zM448 960h128v-512h-128z" />
<glyph unicode="&#xe9bb;" glyph-name="list2" d="M384 896h640v-128h-640v128zM384 512h640v-128h-640v128zM384 128h640v-128h-640v128zM0 832c0 70.692 57.308 128 128 128s128-57.308 128-128c0-70.692-57.308-128-128-128s-128 57.308-128 128zM0 448c0 70.692 57.308 128 128 128s128-57.308 128-128c0-70.692-57.308-128-128-128s-128 57.308-128 128zM0 64c0 70.692 57.308 128 128 128s128-57.308 128-128c0-70.692-57.308-128-128-128s-128 57.308-128 128z" />
<glyph unicode="&#xe9d9;" glyph-name="star-full" d="M1024 562.95l-353.78 51.408-158.22 320.582-158.216-320.582-353.784-51.408 256-249.538-60.432-352.352 316.432 166.358 316.432-166.358-60.434 352.352 256.002 249.538z" />
<glyph unicode="&#xe9da;" glyph-name="heart" d="M755.188 896c-107.63 0-200.258-87.554-243.164-179-42.938 91.444-135.578 179-243.216 179-148.382 0-268.808-120.44-268.808-268.832 0-301.846 304.5-380.994 512.022-679.418 196.154 296.576 511.978 387.206 511.978 679.418 0 148.392-120.43 268.832-268.812 268.832z" />
<glyph unicode="&#xea07;" glyph-name="warning" d="M512 867.226l429.102-855.226h-858.206l429.104 855.226zM512 960c-22.070 0-44.14-14.882-60.884-44.648l-437.074-871.112c-33.486-59.532-5-108.24 63.304-108.24h869.308c68.3 0 96.792 48.708 63.3 108.24h0.002l-437.074 871.112c-16.742 29.766-38.812 44.648-60.882 44.648v0zM576 128c0-35.346-28.654-64-64-64s-64 28.654-64 64c0 35.346 28.654 64 64 64s64-28.654 64-64zM512 256c-35.346 0-64 28.654-64 64v192c0 35.346 28.654 64 64 64s64-28.654 64-64v-192c0-35.346-28.654-64-64-64z" />
<glyph unicode="&#xea13;" glyph-name="enter" d="M384 448h-320v128h320v128l192-192-192-192zM1024 960v-832l-384-192v192h-384v256h64v-192h320v576l256 128h-576v-256h-64v320z" />
<glyph unicode="&#xea1c;" glyph-name="play3" d="M192 832l640-384-640-384z" />
<glyph unicode="&#xea3a;" glyph-name="arrow-up2" d="M877.254 557.254l-320 320c-24.992 24.994-65.514 24.994-90.508 0l-320-320c-24.994-24.994-24.994-65.516 0-90.51 24.994-24.996 65.516-24.996 90.51 0l210.744 210.746v-613.49c0-35.346 28.654-64 64-64s64 28.654 64 64v613.49l210.746-210.746c12.496-12.496 28.876-18.744 45.254-18.744s32.758 6.248 45.254 18.746c24.994 24.994 24.994 65.514 0 90.508z" />
<glyph unicode="&#xea8b;" glyph-name="google-plus" d="M325.8 502.6v-111.8h184.8c-7.4-48-55.8-140.6-184.8-140.6-111.2 0-202 92.2-202 205.8s90.8 205.8 202 205.8c63.4 0 105.6-27 129.8-50.2l88.4 85.2c-56.8 53-130.4 85.2-218.2 85.2-180.2-0.2-325.8-145.8-325.8-326s145.6-325.8 325.8-325.8c188 0 312.8 132.2 312.8 318.4 0 21.4-2.4 37.8-5.2 54h-307.6zM1024 512h-96v96h-96v-96h-96v-96h96v-96h96v96h96z" />
<glyph unicode="&#xea90;" glyph-name="facebook2" d="M608 768h160v192h-160c-123.514 0-224-100.486-224-224v-96h-128v-192h128v-512h192v512h160l32 192h-192v96c0 17.346 14.654 32 32 32z" />
<glyph unicode="&#xea92;" glyph-name="instagram" d="M512 867.8c136.8 0 153-0.6 206.8-3 50-2.2 77-10.6 95-17.6 23.8-9.2 41-20.4 58.8-38.2 18-18 29-35 38.4-58.8 7-18 15.4-45.2 17.6-95 2.4-54 3-70.2 3-206.8s-0.6-153-3-206.8c-2.2-50-10.6-77-17.6-95-9.2-23.8-20.4-41-38.2-58.8-18-18-35-29-58.8-38.4-18-7-45.2-15.4-95-17.6-54-2.4-70.2-3-206.8-3s-153 0.6-206.8 3c-50 2.2-77 10.6-95 17.6-23.8 9.2-41 20.4-58.8 38.2-18 18-29 35-38.4 58.8-7 18-15.4 45.2-17.6 95-2.4 54-3 70.2-3 206.8s0.6 153 3 206.8c2.2 50 10.6 77 17.6 95 9.2 23.8 20.4 41 38.2 58.8 18 18 35 29 58.8 38.4 18 7 45.2 15.4 95 17.6 53.8 2.4 70 3 206.8 3zM512 960c-139 0-156.4-0.6-211-3-54.4-2.4-91.8-11.2-124.2-23.8-33.8-13.2-62.4-30.6-90.8-59.2-28.6-28.4-46-57-59.2-90.6-12.6-32.6-21.4-69.8-23.8-124.2-2.4-54.8-3-72.2-3-211.2s0.6-156.4 3-211c2.4-54.4 11.2-91.8 23.8-124.2 13.2-33.8 30.6-62.4 59.2-90.8 28.4-28.4 57-46 90.6-59 32.6-12.6 69.8-21.4 124.2-23.8 54.6-2.4 72-3 211-3s156.4 0.6 211 3c54.4 2.4 91.8 11.2 124.2 23.8 33.6 13 62.2 30.6 90.6 59s46 57 59 90.6c12.6 32.6 21.4 69.8 23.8 124.2 2.4 54.6 3 72 3 211s-0.6 156.4-3 211c-2.4 54.4-11.2 91.8-23.8 124.2-12.6 34-30 62.6-58.6 91-28.4 28.4-57 46-90.6 59-32.6 12.6-69.8 21.4-124.2 23.8-54.8 2.6-72.2 3.2-211.2 3.2v0zM512 711c-145.2 0-263-117.8-263-263s117.8-263 263-263 263 117.8 263 263c0 145.2-117.8 263-263 263zM512 277.4c-94.2 0-170.6 76.4-170.6 170.6s76.4 170.6 170.6 170.6c94.2 0 170.6-76.4 170.6-170.6s-76.4-170.6-170.6-170.6zM846.8 721.4c0-33.91-27.49-61.4-61.4-61.4s-61.4 27.49-61.4 61.4c0 33.91 27.49 61.4 61.4 61.4s61.4-27.49 61.4-61.4z" />
<glyph unicode="&#xea96;" glyph-name="twitter" d="M1024 733.6c-37.6-16.8-78.2-28-120.6-33 43.4 26 76.6 67.2 92.4 116.2-40.6-24-85.6-41.6-133.4-51-38.4 40.8-93 66.2-153.4 66.2-116 0-210-94-210-210 0-16.4 1.8-32.4 5.4-47.8-174.6 8.8-329.4 92.4-433 219.6-18-31-28.4-67.2-28.4-105.6 0-72.8 37-137.2 93.4-174.8-34.4 1-66.8 10.6-95.2 26.2 0-0.8 0-1.8 0-2.6 0-101.8 72.4-186.8 168.6-206-17.6-4.8-36.2-7.4-55.4-7.4-13.6 0-26.6 1.4-39.6 3.8 26.8-83.4 104.4-144.2 196.2-146-72-56.4-162.4-90-261-90-17 0-33.6 1-50.2 3 93.2-59.8 203.6-94.4 322.2-94.4 386.4 0 597.8 320.2 597.8 597.8 0 9.2-0.2 18.2-0.6 27.2 41 29.4 76.6 66.4 104.8 108.6z" />
<glyph unicode="&#xea9d;" glyph-name="youtube" d="M1013.8 652.8c0 0-10 70.6-40.8 101.6-39 40.8-82.6 41-102.6 43.4-143.2 10.4-358.2 10.4-358.2 10.4h-0.4c0 0-215 0-358.2-10.4-20-2.4-63.6-2.6-102.6-43.4-30.8-31-40.6-101.6-40.6-101.6s-10.2-82.8-10.2-165.8v-77.6c0-82.8 10.2-165.8 10.2-165.8s10-70.6 40.6-101.6c39-40.8 90.2-39.4 113-43.8 82-7.8 348.2-10.2 348.2-10.2s215.2 0.4 358.4 10.6c20 2.4 63.6 2.6 102.6 43.4 30.8 31 40.8 101.6 40.8 101.6s10.2 82.8 10.2 165.8v77.6c-0.2 82.8-10.4 165.8-10.4 165.8zM406.2 315.2v287.8l276.6-144.4-276.6-143.4z" />
<glyph unicode="&#xeacb;" glyph-name="lastfm" d="M451.6 193.8l-37.6 102c0 0-61-68-152.4-68-81 0-138.4 70.4-138.4 183 0 144.2 72.8 195.8 144.2 195.8 103.2 0 136-66.8 164.2-152.4l37.6-117.2c37.6-113.8 108-205.2 310.8-205.2 145.4 0 244 44.6 244 161.8 0 95-54 144.2-154.8 167.8l-75 16.4c-51.6 11.8-66.8 32.8-66.8 68 0 39.8 31.6 63.4 83.2 63.4 56.4 0 86.8-21.2 91.4-71.6l117.2 14c-9.4 105.6-82.2 149-201.8 149-105.6 0-208.8-39.8-208.8-167.8 0-79.8 38.8-130.2 136-153.6l79.8-18.8c59.8-14 79.8-38.8 79.8-72.8 0-43.4-42.2-61-122-61-118.4 0-167.8 62.2-195.8 147.8l-38.8 117.2c-49 152.6-127.6 208.8-283.6 208.8-172.4 0-264-109-264-294.4 0-178.2 91.4-274.4 255.8-274.4 132.4 0 195.8 62.2 195.8 62.2v0z" />
</font>
</defs>
</svg>
